↑↓torrent.by
Поиск
Логин:  Регистрация
Пароль:

Капитан Марвел 2 / Марвели / The Marvels (2023) BDRip 1080p | D | UKR

download Скачать торрент-файл   magnet Магнитная ссылка Размер: 6.81 GB Добавлен: 2024-02-10 05:00
Пиры будут получены из сети DHT
Последний сидер был замечен 2024-02-10 05:00
Информация о фильме Название: Капитан Марвел 2 Оригинальное название: The Marvels Год выхода: 2023 Жанр: фэнтези, боевик, приключения Режиссер: Ниа ДаКоста В ролях: Бри Ларсон, Тейона Паррис, Иман Веллани, Сэмюэл Л. Джексон, Зави Эштон, Гари Льюис, Пак Со-джун, Зенобия Шрофф, Мохан Капур, Саагар Шайх О фильме: Кэрол Дэнверс обретает свою отнятую тиранами Крии личность и мстит Высшему Разуму. Это приводят к тому, что Кэрол взваливает на свои плечи бремя дестабилизированной Вселенной. Когда она проходит через червоточину, которая должна вывести её на революционера из числа Крии, её силы переплетаются со способностями Камалы Хан, известной как Мисс Марвел, а также с племянницей Моникой Рамбо. Девушкам придётся научиться работать в команде, чтобы спасти Вселенную. Страна: США Студия: Industrial Light & Magic (ILM), Perception, ReelEye Company, RISE Visual Effects Studios, Sony Pictures Imageworks, Trixter Film, Visualskies, Weta Digital, Lifecast Продолжительность: 01:44:44 Перевод: Дублированный | Le Doyen (Украинский) Файл Кодек: x.264 Качество: BDRip 1080p Видео: AVC, 1920x804 (2.40:1), 24.000 fps, 8281 kb/s Аудио 1: AC3, 48.0 kHz, 6 ch, 384 kb/s | UKR Аудио 2: AC3, 48.0 kHz, 6 ch, 640 kb/s | ENG Субтитры: Украинские (forced, full), английские (full, SDH) Трейлер
[+] MIGeneral Unique ID : 97230528948105195304774368996435051813 (0x4925EB314C448B87F4AE21C161364525) Complete name : The.Marvels.(2023).BDRip.1080p.Ukr.Eng..mkv Format : Matroska Format version : Version 4 File size : 6.81 GiB Duration : 1 h 44 min Overall bit rate : 9 308 kb/s Movie name : The Marvels (2023) Encoded date : UTC 2024-02-09 12:09:46 Writing application : mkvmerge v82.0 ('I'm The President') 64-bit Writing library : libebml v1.4.5 + libmatroska v1.7.1 Cover : Yes Attachments : Cover.jpg Video ID : 1 Format : AVC Format/Info : Advanced Video Codec Format profile : High@L4.1 Format settings : CABAC / 5 Ref Frames Format settings, CABAC : Yes Format settings, Reference frames : 5 frames Codec ID : V_MPEG4/ISO/AVC Duration : 1 h 44 min Bit rate : 8 281 kb/s Width : 1 920 pixels Height : 804 pixels Display aspect ratio : 2.40:1 Frame rate mode : Constant Frame rate : 23.976 (24000/1001) FPS Color space : YUV Chroma subsampling : 4:2:0 Bit depth : 8 bits Scan type : Progressive Bits/(Pixel*Frame) : 0.224 Stream size : 6.06 GiB (89%) Writing library : x264 core 157 r2938 2b00a84 TnP@MTeam Mod Encoding settings : cabac=1 / ref=5 / deblock=1:-3:-3 / analyse=0x3:0x133 / me=umh / subme=10 / psy=1 / psy_rd=1.05:0.00 / mixed_ref=1 / me_range=32 / chroma_me=1 / trellis=2 / 8x8dct=1 / cqm=0 / deadzone=21,11 / fast_pskip=0 / chroma_qp_offset=-2 / threads=12 / lookahead_threads=2 / sliced_threads=0 / nr=0 / decimate=0 / interlaced=0 / bluray_compat=0 / constrained_intra=0 / bframes=8 / b_pyramid=2 / b_adapt=2 / b_bias=0 / direct=3 / weightb=1 / open_gop=0 / weightp=2 / keyint=250 / keyint_min=24 / scenecut=40 / intra_refresh=0 / rc_lookahead=250 / rc=crf / mbtree=0 / crf=16.8 / qcomp=0.60 / qpmin=0 / qpmax=69 / qpstep=4 / vbv_maxrate=62500 / vbv_bufsize=78125 / crf_max=0.0 / nal_hrd=none / filler=0 / ip_ratio=1.30 / pb_ratio=1.20 / aq=3:0.80 Default : Yes Forced : No Color range : Limited Color primaries : BT.709 Matrix coefficients : BT.709 Audio #1 ID : 2 Format : AC-3 Format/Info : Audio Coding 3 Commercial name : Dolby Digital Codec ID : A_AC3 Duration : 1 h 44 min Bit rate mode : Constant Bit rate : 384 kb/s Channel(s) : 6 channels Channel layout : L R C LFE Ls Rs Sampling rate : 48.0 kHz Frame rate : 31.250 FPS (1536 SPF) Compression mode : Lossy Stream size : 288 MiB (4%) Title : DUB (Le Doyen) Language : Ukrainian Service kind : Complete Main Default : Yes Forced : No Audio #2 ID : 3 Format : AC-3 Format/Info : Audio Coding 3 Commercial name : Dolby Digital Codec ID : A_AC3 Duration : 1 h 44 min Bit rate mode : Constant Bit rate : 640 kb/s Channel(s) : 6 channels Channel layout : L R C LFE Ls Rs Sampling rate : 48.0 kHz Frame rate : 31.250 FPS (1536 SPF) Compression mode : Lossy Stream size : 479 MiB (7%) Title : Original Language : English Service kind : Complete Main Default : No Forced : No Text #1 ID : 4 Format : UTF-8 Codec ID : S_TEXT/UTF8 Codec ID/Info : UTF-8 Plain Text Duration : 1 h 33 min Bit rate : 1 b/s Count of elements : 20 Stream size : 802 Bytes (0%) Title : Forced Language : Ukrainian Default : Yes Forced : No Text #2 ID : 5 Format : UTF-8 Codec ID : S_TEXT/UTF8 Codec ID/Info : UTF-8 Plain Text Duration : 1 h 42 min Bit rate : 80 b/s Count of elements : 1226 Stream size : 60.6 KiB (0%) Title : Full Language : Ukrainian Default : No Forced : No Text #3 ID : 6 Format : UTF-8 Codec ID : S_TEXT/UTF8 Codec ID/Info : UTF-8 Plain Text Duration : 1 h 35 min Bit rate : 55 b/s Count of elements : 1207 Stream size : 38.5 KiB (0%) Title : Full Language : English Default : No Forced : No Text #4 ID : 7 Format : UTF-8 Codec ID : S_TEXT/UTF8 Codec ID/Info : UTF-8 Plain Text Duration : 1 h 44 min Bit rate : 64 b/s Count of elements : 1791 Stream size : 49.8 KiB (0%) Title : SDH Language : English Default : No Forced : No Menu 00:00:00.000 : en:Chapter 01 00:04:20.969 : en:Chapter 02 00:07:03.006 : en:Chapter 03 00:11:09.711 : en:Chapter 04 00:14:14.270 : en:Chapter 05 00:21:09.018 : en:Chapter 06 00:27:19.888 : en:Chapter 07 00:29:42.739 : en:Chapter 08 00:33:25.503 : en:Chapter 09 00:38:08.077 : en:Chapter 10 00:43:50.253 : en:Chapter 11 00:48:06.133 : en:Chapter 12 00:50:26.815 : en:Chapter 13 00:52:31.023 : en:Chapter 14 00:58:52.070 : en:Chapter 15 01:05:07.695 : en:Chapter 16 01:09:47.683 : en:Chapter 17 01:17:14.547 : en:Chapter 18 01:23:57.032 : en:Chapter 19 01:27:25.031 : en:Chapter 20 01:29:50.010 : en:Chapter 21 01:32:04.102 : en:Chapter 22 01:33:11.085 : en:Chapter 23 01:35:53.831 : en:Chapter 24 01:37:35.183 : en:Chapter 25
[+] Скриншоты

Всего файлов в раздаче: 1 
The.Marvels.(2023).BDRip.1080p.Ukr.Eng.[Hurtom].mkv6.81 GB

Похожие раздачи по запросу - Капитан
2024-02-14 magnet Капитан Марвел 2 / The Marvels (2023) BDRip 1080p от Generalfilm | D 11.13 GB ↑ 0 ↓ 0
2024-02-14 magnet Капитан Марвел 2 / Марвели / The Marvels (2023) UHD BDRemux 2160p | 4K | HDR | D | UKR 42.06 GB ↑ 0 ↓ 0
2024-02-09 magnet Капитан Марвел 2 / Марвели / The Marvels (2023) WEB-DL 1080p | D | IMAX | UKR 5.57 GB ↑ 0 ↓ 0
2024-02-08 magnet Капитан Марвел 2 / The Marvels (2023) WEB-DLRip-AVC от DoMiNo & селезень | D | MovieDalen, Red Head Sound | IMAX 2.07 GB ↑ 0 ↓ 0
2024-02-08 magnet Капитан Марвел 2 / The Marvels (2023) UHD BDRemux 2160p от селезень | 4K | HDR | D 42.58 GB ↑ 0 ↓ 0
2024-02-08 magnet Капитан Марвел 2 / The Marvels (2023) BDRemux 1080p от селезень | D 27.34 GB ↑ 0 ↓ 0
2024-02-08 magnet Капитан Марвел 2 / The Marvels (2023) WEB-DL 1080p от селезень | D | MovieDalen, Red Head Sound | IMAX 6.08 GB ↑ 0 ↓ 0

Комментарии


Зарегистрируйтесь чтобы добавить комментарий
Торрент клиент
byTorrent - программа для загрузки торрент-файлов.

Скачать byTorrent.exe (1,5 МБ)

Скачать byTorrent.zip (0,6 МБ)

Поддержи torrent.by
российских рублей
(300 российских рублей это 4$)

Обратная связь rss

End game ©