↑↓torrent.by
Поиск
Логин:  Регистрация
Пароль:

Ученик тигра / The Tiger's Apprentice (2024) WEB-DL 1080p от New-Team | P

download Скачать торрент-файл   magnet Магнитная ссылка Размер: 3.85 GB Добавлен: 2024-02-10 05:00
Пиры будут получены из сети DHT
Последний сидер был замечен 2024-02-24 19:59
Ученик тигра / The Tiger's Apprentice Год выпуска: 2024 Выпущено: США, Paramount Animation, Jane Startz Productions, The Monk Studio Жанр: Мультфильм, фэнтези, боевик, приключения, семейный Режиссер: Раман Хуэй, Чон Ён-док, Пол Уотлинг В ролях: Генри Голдинг, Брэндон Су Ху, Люси Лью, Сандра О, Мишель Йео, Бовэнь Ян, Леа Льюис, Кхенг Хуа Тан, Шерри Кола, Дебора С. Крэйг О фильме: После смерти бабушки ее внук Том Ли должен пойти в ученики к говорящему тигру. Он должен изучить древнюю магию, чтобы стать новым хранителем древнего феникса. Продолжительность: 01:24:15 Перевод: Профессиональный (многоголосый, закадровый) | NewStudio Субтитры: Русские (full (AI)), английские Раздача от: Автор релиза: JNS82. Формат: MKV Качество: WEB-DL 1080p | AMZN Видео: MPEG-4 AVC, 5413 Кбит/с, 1920x800 Аудио #1: AC3, 6 ch, 384 Кбит/с | RUS | Аудио #2: E-AC3 JOC, 6 ch, 768 Кбит/с | ENG |
[+] MediaInfoОбщее Уникальный идентификатор : 281687617432758990811607558209115450334 (0xD3EB0FCE0A787FBCF420C9AB913EEBDE) Полное имя : D:TorrentsThe.Tigers.Apprentice.2024.1080p.AMZN_от New-Team.mkv Формат : Matroska Версия формата : Version 4 Размер файла : 3,85 Гбайт Продолжительность : 1 ч. 24 м. Общий поток : 6 549 Кбит/сек Название фильма : The.Tigers.Apprentice.2024.1080p.AMZN_от New-Team Дата кодирования : UTC 2024-02-09 14:27:50 Программа кодирования : mkvmerge v79.0 ('Funeral Pyres') 64-bit Библиотека кодирования : libebml v1.4.4 + libmatroska v1.7.1 Видео Идентификатор : 1 Формат : AVC Формат/Информация : Advanced Video Codec Профиль формата : High@L4 Настройки формата : CABAC / 4 Ref Frames Параметр CABAC формата : Да Параметр RefFrames формата : 4 кадра Идентификатор кодека : V_MPEG4/ISO/AVC Продолжительность : 1 ч. 23 м. Вид битрейта : Постоянный Битрейт : 5 413 Кбит/сек Номинальный битрейт : 10 000 Кбит/сек Ширина : 1 920 пикселей Высота : 800 пикселей Соотношение сторон : 2,40:1 Режим частоты кадров : Постоянный Частота кадров : 23,976 (24000/1001) кадра/сек Цветовое пространство : YUV Субдискретизация насыщенности : 4:2:0 Битовая глубина : 8 бит Тип развёртки : Прогрессивная Бит/(Пиксели*Кадры) : 0.147 Размер потока : 3,17 Гбайт (82%) Язык : English Default : Да Forced : Нет Цветовой диапазон : Limited Основные цвета : BT.709 Характеристики трансфера : BT.709 Коэффициенты матрицы : BT.709 Аудио #1 Идентификатор : 2 Формат : AC-3 Формат/Информация : Audio Coding 3 Коммерческое название : Dolby Digital Идентификатор кодека : A_AC3 Продолжительность : 1 ч. 24 м. Вид битрейта : Постоянный Битрейт : 384 Кбит/сек Каналы : 6 каналов Channel layout : L R C LFE Ls Rs Частота : 48,0 КГц Частота кадров : 31,250 кадров/сек (1536 SPF) Метод сжатия : С потерями Размер потока : 231 Мбайт (6%) Заголовок : MVO - NewStudio Язык : Russian Service kind : Complete Main Default : Да Forced : Нет Аудио #2 Идентификатор : 3 Формат : E-AC-3 JOC Формат/Информация : Enhanced AC-3 with Joint Object Coding Коммерческое название : Dolby Digital Plus with Dolby Atmos Идентификатор кодека : A_EAC3 Продолжительность : 1 ч. 24 м. Вид битрейта : Постоянный Битрейт : 768 Кбит/сек Каналы : 6 каналов Channel layout : L R C LFE Ls Rs Частота : 48,0 КГц Частота кадров : 31,250 кадров/сек (1536 SPF) Метод сжатия : С потерями Задержка видео : 20 мс. Размер потока : 463 Мбайт (12%) Заголовок : Original Язык : English Service kind : Complete Main Default : Нет Forced : Нет Complexity index : 16 Number of dynamic objects : 15 Bed channel count : 1 канал Bed channel configuration : LFE Текст #1 Идентификатор : 4 Формат : UTF-8 Идентификатор кодека : S_TEXT/UTF8 Идентификатор кодека/Информация : UTF-8 Plain Text Продолжительность : 1 ч. 12 м. Битрейт : 85 бит/сек Count of elements : 1178 Размер потока : 45,8 Кбайт (0%) Заголовок : ] Язык : Russian Default : Нет Forced : Нет Текст #2 Идентификатор : 5 Формат : UTF-8 Идентификатор кодека : S_TEXT/UTF8 Идентификатор кодека/Информация : UTF-8 Plain Text Продолжительность : 1 ч. 15 м. Битрейт : 60 бит/сек Count of elements : 1163 Размер потока : 33,5 Кбайт (0%) Заголовок : Язык : English Default : Нет Forced : Нет Текст #3 Идентификатор : 6 Формат : UTF-8 Идентификатор кодека : S_TEXT/UTF8 Идентификатор кодека/Информация : UTF-8 Plain Text Продолжительность : 1 ч. 16 м. Битрейт : 66 бит/сек Count of elements : 1323 Размер потока : 37,0 Кбайт (0%) Заголовок : Язык : English Default : Нет Forced : Нет Меню 00:00:00.000 : en:Chapter 01 01:14:08.000 : en:Credits

Всего файлов в раздаче: 1 
The.Tigers.Apprentice.2024.1080p.AMZN_от New-Team.mkv3.85 GB

Похожие раздачи по запросу - Ученик
2024-02-11 magnet Ученик тигра / The Tiger's Apprentice (2024) WEB-DL-HEVC 2160p | 4K | SDR | P, L 9.99 GB ↑ 0 ↓ 0
2024-02-10 magnet Ученик тигра / The Tiger's Apprentice (2024) WEB-DLRip-AVC от ExKinoRay | P 745.97 MB ↑ 0 ↓ 0
2023-11-08 magnet Андрей Первухин - Ученик 1 (2023) МР3 419.85 MB ↑ 0 ↓ 0

Комментарии


Зарегистрируйтесь чтобы добавить комментарий
Торрент клиент
byTorrent - программа для загрузки торрент-файлов.

Скачать byTorrent.exe (1,5 МБ)

Скачать byTorrent.zip (0,6 МБ)

Поддержи torrent.by
российских рублей
(300 российских рублей это 4$)

Обратная связь rss

End game ©