↑↓torrent.by
Поиск
Логин:  Регистрация
Пароль:

Мавиндо. Великая драма Серенгети / Mawindo: The big drama of the Serengeti (2019) HDTV 1080i | P1

download Скачать торрент-файл   magnet Магнитная ссылка Размер: 2.85 GB Добавлен: 2024-02-10 11:00
Пиры будут получены из сети DHT
Последний сидер был замечен 2024-02-10 19:30
Информация о фильме Название: Мавиндо. Великая драма Серенгети Оригинальное название: Mawindo: The big drama of the Serengeti Год выхода: 2019 Жанр: Документальный, природа, флора, фауна Режиссер: Хуан Луис Сантос О фильме: Жизнь в африканском национальном парке Серенгети - ежедневная игра на выживание. Жителям Саванны всё время угрожает опасность. И нужно оставаться начеку, чтобы не стать жертвой - хищника или браконьера. Страна: Испания Студия: Terra Incognita Продолжительность: 00:50:49 Перевод: Профессиональный (одноголосый закадровый) Файл Кодек: AVC/H.264 Качество: HDTV 1080i Видео: 1920x1080 (16:9), 25 fps, AVC (H.264), High@L4, ~7252 kbps, 25fps, 0.140 bit/pixel Звук: Русский 48 kHz, MPEG Layer 2, 2 ch, 192 kbps Испанский 48 kHz, MPEG Layer 2, 2 ch, 192 kbps Семпл
[+] MediaInfoComplete name : F:НаладкиMawindo_Великая драма Серенгети.ts Format : MPEG-TS File size : 2.85 GiB Duration : 50 min 50 s Overall bit rate mode : Variable Overall bit rate : 8 037 kb/s Frame rate : 25.000 FPS Video ID : 305 (0x131) Menu ID : 17105 (0x42D1) Format : AVC Format/Info : Advanced Video Codec Format profile : High@L4 Format settings : CABAC / 4 Ref Frames Format settings, CABAC : Yes Format settings, Reference : 4 frames Format settings, GOP : M=4, N=28 Codec ID : 27 Duration : 50 min 49 s Bit rate : 7 252 kb/s Width : 1 920 pixels Height : 1 080 pixels Display aspect ratio : 16:9 Active Format Deion : Letterbox 16:9 image Frame rate : 25.000 FPS Standard : Component Color space : YUV Chroma subsampling : 4:2:0 Bit depth : 8 bits Scan type : Interlaced Scan type, store method : Separated fields Scan order : Top Field First Bits/(Pixel*Frame) : 0.140 Stream size : 2.57 GiB (90%) Color range : Limited Color primaries : BT.709 Transfer characteristics : BT.709 Matrix coefficients : BT.709 Audio #1 ID : 405 (0x195) Menu ID : 17105 (0x42D1) Format : MPEG Audio Format version : Version 1 Format profile : Layer 2 Codec ID : 3 Duration : 50 min 49 s Bit rate mode : Constant Bit rate : 192 kb/s Channel(s) : 2 channels Sampling rate : 48.0 kHz Frame rate : 41.667 FPS (1152 SPF) Compression mode : Lossy Delay relative to video : -120 ms Stream size : 69.8 MiB (2%) Language : Russian Audio #2 ID : 425 (0x1A9) Menu ID : 17105 (0x42D1) Format : MPEG Audio Format version : Version 1 Format profile : Layer 2 Codec ID : 3 Duration : 50 min 49 s Bit rate mode : Constant Bit rate : 192 kb/s Channel(s) : 2 channels Sampling rate : 48.0 kHz Frame rate : 41.667 FPS (1152 SPF) Compression mode : Lossy Delay relative to video : -120 ms Stream size : 69.8 MiB (2%) Language : English Text ID : 505 (0x1F9)-888 Menu ID : 17105 (0x42D1) Format : Teletext Subtitle Language : Russian Other ID : 505 (0x1F9)-100 Menu ID : 17105 (0x42D1) Format : Teletext Language : Russian
[+] Скриншоты
Релиз от: kyba

Всего файлов в раздаче: 1 
Mawindo_Великая драма Серенгети.ts2.85 GB

Комментарии


Зарегистрируйтесь чтобы добавить комментарий
Торрент клиент
byTorrent - программа для загрузки торрент-файлов.

Скачать byTorrent.exe (1,5 МБ)

Скачать byTorrent.zip (0,6 МБ)

Поддержи torrent.by
российских рублей
(300 российских рублей это 4$)

Обратная связь rss

End game ©