↑↓torrent.by
Поиск
Логин:  Регистрация
Пароль:

РобоКоп / RoboCop (2014) BDRip 1080p | Лицензия

download Скачать торрент-файл   magnet Магнитная ссылка Размер: 10.73 GB Добавлен: 2024-02-10 17:00
Пиры будут получены из сети DHT
Последний сидер был замечен 2024-02-16 22:32
РобоКоп / RoboCop Год выпуска: 2014 Страна: США Производство: Columbia Pictures, Metro-Goldwyn-Mayer (MGM), Strike Entertainment Слоган: «У зла нет шансов» Жанр: фантастика, боевик, криминал Продолжительность: 01:57:29 Перевод: Профессиональный (полное дублирование) Blu-Ray CEE Cубтитры: Русские , украинские , английские Режиссер: Жозе Падилья / José Padilha Сценарий: Джошуа Зитумер / Joshua Zetumer, Эдвард Ноймайер / Edward Neumeier, Майкл Майнер / Michael Miner Продюсер: Марк Абрахам / Marc Abraham, Эрик Ньюман / Eric Newman, Гари Барбер / Gary Barber, Роджер Бернбаум / Roger Birnbaum, Билл Карраро / Bill Carraro Оператор: Лула Карвальо / Lula Carvalho Композитор: Педро Бромфман / Pedro Bromfman В ролях: Юэль Киннаман (Alex Murphy / RoboCop), Гари Олдман (Dr. Dennett Norton), Майкл Китон (Raymond Sellars), Эбби Корниш (Clara Murphy), Джеки Эрл Хейли (Rick Mattox), Сэмюэл Л. Джексон (Pat Novak), Майкл К. Уильямс (Jack Lewis), Дженнифер Или (Liz Kline), Марианн Жан-Батист (Chief Karen Dean), Айми Гарсиа (Jae Kim), Джей Барушель (Tom Pope), Джон Пол Руттан (David Murphy) Дублёры: Денис Некрасов (Alex Murphy / RoboCop), Никита Прозоровский (Dr. Dennett Norton), Владимир Зайцев (Raymond Sellars), Андрей Бархударов (Rick Mattox), Владимир Антоник (Pat Novak), Лариса Некипелова (Liz Kline), Инна Королёва (Chief Karen Dean), Рамиля Искандер (Jae Kim), Александр Гаврилин (Tom Pope), Борис Шувалов (Antoine Vallon), Александр Новиков (Mayor Durant), Олег Форостенко (Senator Hubert Dreyfuss) Бюджет: $100 000 000 Сборы в США: $58 486 409 Сборы в России: $9 901 976 Сборы в мире: $241 935 818 Мировая премьера: 30 января 2014 Премьера (РФ): 13 февраля 2014, «WDSSPR» Релиз на DVD: 22 мая 2014, «Двадцатый Век Фокс СНГ» Релиз на Blu-ray: 22 мая 2014, «Двадцатый Век Фокс СНГ» Описание: 2028 год. Международный конгломерат ОмниКорп лидирует в производстве робототехники. Благодаря разработкам компании Америка успешно побеждает в войнах по всему миру. Но теперь пришло время применить технологию на американской земле. Алекс Мерфи - любящий муж, отец и отличный полицейский, оберегающий порядок в Детройте, получает на службе смертельные ранения. Специалисты ОмниКорпа, используя новейшие разработки, сохраняют ему жизнь. Алекс возвращается на службу в родной город не только с новыми сверхспособностями, но и с проблемами, с которыми не сталкивался ни один живой человек. Рейтинг: MPAA: PG-13 - Детям до 13 лет просмотр не желателен Видеоряд - hahay0yo@CHD Сборка рипа - batonchik Формат: Matroska Видео: 1920x800 at 23.976 fps, x264@L4.1, ~10.4 Mbps avg Аудио #1: Russian: 48 kHz, DTS, 3/2 (L,C,R,l,r) + LFE ch, ~768 kbps avg |Дубляж, Blu-ray CEE| Аудио #2: Ukrainian: 48 kHz, AC3, 3/2 (L,C,R,l,r) + LFE ch, ~448 kbps avg |Дубляж, Blu-ray CEE| Аудио #3: English: 48 kHz, DTS, 3/2 (L,C,R,l,r) + LFE ch, ~1509 kbps avg
[+] Знаете ли Вы, что...В оригинале злодеем был Кларенс Боддикер, а в ремейке - Антуан Вэллон. Гаэль Гарсия Берналь, Александр Скарсгард и Логан Маршалл-Грин были близки к получению роли, которая досталась Майклу К. Уильямсу. Хью Лори вел переговоры о роли Реймонда Селларса, однако они провалились. Клайв Оуэн всерьез рассматривался на замену Лори, но выбор пал на Майкла Китона. Майкл Фассбендер, Маттиас Шонартс и Рассел Кроу рассматривались на главную роль. Режиссером фильма первое время значился Даррен Аронофски, однако впоследствии его заменил бразильский постановщик Жозе Падилья. Эдвард Нортон отказался от роли доктора Нортона. Роль исполнил Гари Олдман. Шон Пенн отказался от роли медиамагната Пэта Новака, которую в итоге получил Сэмюэл Л. Джексон. Ребекка Холл отказалась от роли жены Алекса Мерфи. Джессика Альба, Кери Рассел и Кейт Мара проходили прослушивание, но роль получила Эбби Корниш. Когда Селларс просматривает набросок дизайна робо-костюма, то можно заметить, что это костюм из фильма «Робокоп» (1987). В ремейке напарник у Мерфи - Джек Льюис, в оригинале у него была напарница Энн Льюис. Сохранённая ладонь - это отсылка к первому фильму о Робокопе. На промежуточном этапе создания робота-полицейского демонстрируют руководителю проекта - Бобу Мортону, который делает коллегам замечание: «Зачем вы оставили руку? Мы же говорили о полном протезе тела». Для продвижения фильма Metro-Goldwyn-Mayer Studios Inc. и Sony Pictures в 2012 году создали псевдоофициальный сайт несуществующей OmniCorp, на котором был размещён рекламный ролик OmniCorp, записи вымышленных теленовостей о беспорядках в американских городах, описание двух видов её продукции (беспилотного самолёта и робота ED-209) и анонс киборга RC-2000. Также был создан псевдоофициальный профиль в Facebook, с тем же роликом и другими фотографиями робота ED-209 (в том числе его старой модели вместе с создателем) и RC-2000. Робокоп вспоминает прошлое, в котором видит ранение напарника и взрыв себя в автомобиле, в оригинале он видел выстрелы в него и контрольный выстрел от главаря ему в голову. Когда Алекс не проходит самые первые боевые испытания, персонаж Джеки Эрла Хейли говорит: «Я бы не купил это и за доллар». В оригинальном фильме несколько раз в кадре демонстрируется развлекательная телепередача, ведущий которой кричит «Я бы купил это за доллар!».
[+] MediaInfoGeneral Unique ID : 242414777822175278701621923824180399939 (0xB65F635125E50E1DBAE61087A7340F43) Complete name : РобоКоп-RoboCop.2014.BDRip.1080p.mkv Format : Matroska Format version : Version 2 File size : 10.7 GiB Duration : 1h 57mn Overall bit rate : 13.1 Mbps Movie name : РобоКоп-RoboCop.2014.BDRip.1080p Encoded date : UTC 2014-05-16 12:14:22 Writing application : mkvmerge v5.8.0 ('No Sleep / Pillow') built on Sep 2 2012 15:37:04 Writing library : libebml v1.2.3 + libmatroska v1.3.0 Video ID : 1 Format : AVC Format/Info : Advanced Video Codec Format profile : High@L4.1 Format settings, CABAC : Yes Format settings, ReFrames : 5 frames Codec ID : V_MPEG4/ISO/AVC Duration : 1h 57mn Bit rate : 10.4 Mbps Width : 1 920 pixels Height : 800 pixels Display aspect ratio : 2.40:1 Frame rate mode : Constant Frame rate : 23.976 fps Color space : YUV Chroma subsampling : 4:2:0 Bit depth : 8 bits Scan type : Progressive Bits/(Pixel*Frame) : 0.281 Stream size : 8.28 GiB (77%) Title : РобоКоп-RoboCop.2014.BDRip.1080p Writing library : x264 core 138 r2356 a1d3d17 Encoding settings : cabac=1 / ref=5 / deblock=1:-3:-3 / analyse=0x3:0x113 / me=umh / subme=11 / psy=1 / psy_rd=1.00:0.05 / mixed_ref=1 / me_range=32 / chroma_me=1 / trellis=2 / 8x8dct=1 / cqm=0 / deadzone=21,11 / fast_pskip=0 / chroma_qp_offset=-2 / threads=18 / lookahead_threads=1 / sliced_threads=0 / nr=0 / decimate=1 / interlaced=0 / bluray_compat=0 / constrained_intra=0 / bframes=5 / b_pyramid=2 / b_adapt=2 / b_bias=0 / direct=3 / weightb=1 / open_gop=0 / weightp=2 / keyint=250 / keyint_min=23 / scenecut=40 / intra_refresh=0 / rc=2pass / mbtree=0 / bitrate=10360 / ratetol=1.0 / qcomp=0.70 / qpmin=0 / qpmax=69 / qpstep=4 / cplxblur=20.0 / qblur=0.5 / ip_ratio=1.40 / pb_ratio=1.30 / aq=2:0.90 Language : English Default : Yes Forced : No Audio #1 ID : 2 Format : DTS Format/Info : Digital Theater Systems Mode : 16 Format settings, Endianness : Big Codec ID : A_DTS Duration : 1h 57mn Bit rate mode : Constant Bit rate : 768 Kbps Channel(s) : 6 channels Channel positions : Front: L C R, Side: L R, LFE Sampling rate : 48.0 KHz Bit depth : 24 bits Compression mode : Lossy Stream size : 645 MiB (6%) Language : Russian Default : Yes Forced : No Audio #2 ID : 3 Format : AC-3 Format/Info : Audio Coding 3 Mode extension : CM (complete main) Format settings, Endianness : Big Codec ID : A_AC3 Duration : 1h 57mn Bit rate mode : Constant Bit rate : 448 Kbps Channel(s) : 6 channels Channel positions : Front: L C R, Side: L R, LFE Sampling rate : 48.0 KHz Bit depth : 16 bits Compression mode : Lossy Stream size : 376 MiB (3%) Language : Ukrainian Default : No Forced : No Audio #3 ID : 4 Format : DTS Format/Info : Digital Theater Systems Mode : 16 Format settings, Endianness : Big Codec ID : A_DTS Duration : 1h 57mn Bit rate mode : Constant Bit rate : 1 509 Kbps Channel(s) : 6 channels Channel positions : Front: L C R, Side: L R, LFE Sampling rate : 48.0 KHz Bit depth : 24 bits Compression mode : Lossy Stream size : 1.24 GiB (12%) Title : English DTS 5.1 1509Kbps Language : English Default : No Forced : No Text #1 ID : 5 Format : UTF-8 Codec ID : S_TEXT/UTF8 Codec ID/Info : UTF-8 Plain Text Title : Форс. Language : Russian Default : Yes Forced : No Text #2 ID : 6 Format : UTF-8 Codec ID : S_TEXT/UTF8 Codec ID/Info : UTF-8 Plain Text Language : Russian Default : No Forced : No Text #3 ID : 7 Format : UTF-8 Codec ID : S_TEXT/UTF8 Codec ID/Info : UTF-8 Plain Text Title : Форс. Language : Ukrainian Default : No Forced : No Text #4 ID : 8 Format : UTF-8 Codec ID : S_TEXT/UTF8 Codec ID/Info : UTF-8 Plain Text Language : Ukrainian Default : No Forced : No Text #5 ID : 9 Format : UTF-8 Codec ID : S_TEXT/UTF8 Codec ID/Info : UTF-8 Plain Text Language : English Default : No Forced : No Text #6 ID : 10 Format : UTF-8 Codec ID : S_TEXT/UTF8 Codec ID/Info : UTF-8 Plain Text Language : English Default : No Forced : No Text #7 ID : 11 Format : UTF-8 Codec ID : S_TEXT/UTF8 Codec ID/Info : UTF-8 Plain Text Language : English Default : No Forced : No Menu 00:00:00.000 : :Chapter 01 00:04:33.898 : :Chapter 02 00:08:51.739 : :Chapter 03 00:14:33.914 : :Chapter 04 00:17:01.603 : :Chapter 05 00:19:27.040 : :Chapter 06 00:21:52.936 : :Chapter 07 00:26:13.571 : :Chapter 08 00:30:47.971 : :Chapter 09 00:32:48.675 : :Chapter 10 00:36:12.378 : :Chapter 11 00:39:06.969 : :Chapter 12 00:43:03.497 : :Chapter 13 00:45:40.654 : :Chapter 14 00:52:10.377 : :Chapter 15 00:57:21.187 : :Chapter 16 01:01:23.888 : :Chapter 17 01:02:59.901 : :Chapter 18 01:06:05.920 : :Chapter 19 01:10:30.476 : :Chapter 20 01:13:26.527 : :Chapter 21 01:18:24.866 : :Chapter 22 01:21:56.202 : :Chapter 23 01:26:04.993 : :Chapter 24 01:28:06.906 : :Chapter 25 01:32:02.975 : :Chapter 26 01:35:52.955 : :Chapter 27 01:38:30.654 : :Chapter 28 01:41:30.751 : :Chapter 29 01:43:44.635 : :Chapter 30 01:46:41.561 : :Chapter 31 01:50:12.689 : :Chapter 32
[+] Скриншоты

Всего файлов в раздаче: 1 
РобоКоп-RoboCop.2014.BDRip.1080p.mkv10.73 GB

Комментарии


Зарегистрируйтесь чтобы добавить комментарий
Торрент клиент
byTorrent - программа для загрузки торрент-файлов.

Скачать byTorrent.exe (1,5 МБ)

Скачать byTorrent.zip (0,6 МБ)

Поддержи torrent.by
российских рублей
(300 российских рублей это 4$)

Обратная связь rss

End game ©