↑↓torrent.by
Поиск
Логин:  Регистрация
Пароль:

Полиция Токио / Tokyo Vice [S01] (2022) WEB-DLRip-AVC от DoMiNo | HDrezka Studio

download Скачать торрент-файл   magnet Магнитная ссылка Размер: 8.72 GB Добавлен: 2024-02-10 17:00
Пиры будут получены из сети DHT
Последний сидер был замечен вчера в 22:20
Информация о фильме Название: Полиция Токио Оригинальное название: Tokyo Vice Год выхода: 2022 Жанр: триллер, драма, криминал Режиссёр: Джозеф Владыка, Киёка Миядзаки, Майкл Манн В ролях: Энсел Элгорт, Кэн Ватанабэ, Рэйчел Келлер, Сё Касамацу, Томохиса Ямасита, Элла Румпф, Сюн Сугата, Масато Хагивара, Косукэ Тоёхара, Аюми Танида О фильме: История о том, как юный Джейк Адельштейн, приехав в Японию, становится криминальным репортёром «Ёмиури симбун» - крупнейшей газеты страны на английском языке. В течение многих лет Адельштейн освещает на её страницах тёмную сторону японской действительности. В конце концов, специфика работы сводит его лицом к лицу с Тадамасой Гото, боссом якудза. Страна: США Студия: Boku Films, Endeavor Content, WoWow Inc. Продолжительность: ~00:50:00 серия Перевод: Профессиональный (многоголосый, закадровый) HDrezka Studio Субтитры: Russian (Forced), English (Forced -Hardsub) Файл Формат: Matroska Качество: WEB-DLRip-AVC | Tokyo.Vice.S01.1080p.HMAX.WEB-DL.1080p.DD5.1.x264-NTb Видео: 1024x512 at 23.976 fps, x264@L4.1, ~2000-2300 kbps Аудио: AC3, 6 ch, ~448 kbps - | Русский | ► Без Рекламы! ***Релиз от: -=DoMiNo=-
[+] M/Ix264 : frame I:711 Avg QP:13.93 size: 65478 x264 : frame P:16488 Avg QP:15.48 size: 25703 x264 : frame B:73915 Avg QP:17.25 size: 7513 General Unique ID : 7381706253056744079024527101704720072 (0x58DAA37A139FE064E6A13478956CEC8) Complete name : E:Tokyo Viсе.S01E02.mkv Format : Matroska Format version : Version 4 File size : 1.03 GiB Duration : 55 min 5 s Overall bit rate : 2 665 kb/s Encoded date : UTC 2022-04-24 09:21:27 Writing application : mkvmerge v63.0.0 ('Everything') 64-bit Writing library : libebml v1.4.2 + libmatroska v1.6.4 Cover : Yes Attachments : cover.jpg / cover 2.jpg Video ID : 1 Format : AVC Format/Info : Advanced Video Codec Format profile : High@L4.1 Format settings : CABAC / 10 Ref Frames Format settings, CABAC : Yes Format settings, Reference : 10 frames Codec ID : V_MPEG4/ISO/AVC Duration : 55 min 5 s Bit rate : 2 215 kb/s Width : 1 024 pixels Height : 512 pixels Display aspect ratio : 2.000 Frame rate mode : Constant Frame rate : 23.976 (24000/1001) FPS Color space : YUV Chroma subsampling : 4:2:0 Bit depth : 8 bits Scan type : Progressive Bits/(Pixel*Frame) : 0.176 Stream size : 873 MiB (83%) Title : -=DoMiNo=- Writing library : x264 core 164 r3094 bfc87b7 Encoding settings : cabac=1 / ref=10 / deblock=1:-2:-2 / analyse=0x3:0x133 / me=umh / subme=10 / psy=1 / psy_rd=1.05:0.20 / mixed_ref=1 / me_range=32 / chroma_me=1 / trellis=2 / 8x8dct=1 / cqm=0 / deadzone=21,11 / fast_pskip=0 / chroma_qp_offset=-3 / threads=17 / lookahead_threads=4 / sliced_threads=0 / nr=0 / decimate=1 / interlaced=0 / bluray_compat=0 / constrained_intra=0 / bframes=10 / b_pyramid=2 / b_adapt=2 / b_bias=0 / direct=1 / weightb=1 / open_gop=0 / weightp=2 / keyint=250 / keyint_min=23 / scenecut=40 / intra_refresh=0 / rc_lookahead=60 / rc=crf / mbtree=0 / crf=19.0 / qcomp=0.60 / qpmin=0 / qpmax=69 / qpstep=4 / vbv_maxrate=50000 / vbv_bufsize=62500 / crf_max=0.0 / nal_hrd=none / filler=0 / ip_ratio=1.35 / pb_ratio=1.25 / aq=3:1.00 Language : English Default : Yes Forced : No Color range : Limited Color primaries : BT.709 Transfer characteristics : BT.709 Matrix coefficients : BT.709 Audio ID : 2 Format : AC-3 Format/Info : Audio Coding 3 Commercial name : Dolby Digital Codec ID : A_AC3 Duration : 55 min 5 s Bit rate mode : Constant Bit rate : 448 kb/s Channel(s) : 6 channels Channel layout : L R C LFE Ls Rs Sampling rate : 48.0 kHz Frame rate : 31.250 FPS (1536 SPF) Compression mode : Lossy Stream size : 177 MiB (17%) Title : HDRezka Studio Language : Russian Service kind : Complete Main Default : Yes Forced : No Text ID : 3 Format : UTF-8 Codec ID : S_TEXT/UTF8 Codec ID/Info : UTF-8 Plain Text Duration : 46 min 57 s Bit rate : 1 b/s Count of elements : 13 Stream size : 522 Bytes (0%) Title : forced Language : Russian Default : Yes Forced : No Menu 00:00:04.588 : en:Intro 00:01:19.455 : en:Chapter 1 00:53:50.000 : en:Credits
[+] Скриншоты

Всего файлов в раздаче: 8 
Tokyo Viсе.S01E01.mkv1011.07 MB
Tokyo Viсе.S01E02.mkv1.03 GB
Tokyo Viсе.S01E03.mkv1006.85 MB
Tokyo Viсе.S01E04.mkv1.01 GB
Tokyo Viсе.S01E05.mkv1.19 GB
Tokyo Viсе.S01E06.mkv1.15 GB
Tokyo Viсе.S01E07.mkv1.07 GB
Tokyo Viсе.S01E08.mkv1.31 GB

Похожие раздачи по запросу - Полиция
2024-02-12 magnet Полиция Токио / Tokyo Vice [02x01-02 из 08] (2024) WEB-DL 1080p от NewComers | P 7.68 GB ↑ 0 ↓ 0
2024-02-12 magnet Полиция Токио / Tokyo Vice [02x01-02 из 08] (2024) WEB-DL 1080p от Jaskier | P | Jaskier 2.72 GB ↑ 0 ↓ 0
2024-02-11 magnet Полиция Токио / Tokyo Vice [02x01-02 из 08] (2024) WEB-DL 1080p | HDrezka Studio 7.31 GB ↑ 0 ↓ 0
2024-02-11 magnet Полиция Токио / Tokyo Vice [02x01-02 из 08] (2024) WEB-DLRip-AVC от DoMiNo & селезень | P | HDrezka Studio 1.28 GB ↑ 0 ↓ 0
2024-01-28 magnet Городская полиция / Метро / Metro (1997) WEB-DLRip 720p от DoMiNo & селезень | D, Р, A 2К4.85 GB ↑ 0 ↓ 0
2024-01-24 magnet Полиция реки Хан / Han River Police / Hangang [S01] (2023) WEB-DL 1080p | L2 13.36 GB ↑ 0 ↓ 0

Комментарии

evdub1986
сериал очень крутой, мне понравился


Зарегистрируйтесь чтобы добавить комментарий
Торрент клиент
byTorrent - программа для загрузки торрент-файлов.

Скачать byTorrent.exe (1,5 МБ)

Скачать byTorrent.zip (0,6 МБ)

Поддержи torrent.by
российских рублей
(300 российских рублей это 4$)

Обратная связь rss

End game ©