↑↓torrent.by
Поиск
Логин:  Регистрация
Пароль:

Ученик тигра / The Tiger's Apprentice (2024) WEB-DLRip-AVC от ExKinoRay | P

download Скачать торрент-файл   magnet Магнитная ссылка Размер: 745.97 MB Добавлен: 2024-02-10 17:00
Пиры будут получены из сети DHT
Последний сидер был замечен 2024-02-13 19:46
Информация Название: Ученик тигра Оригинальное название: The Tiger's Apprentice Год выхода: 2024 Жанр: Мультфильм, фэнтези, боевик, приключения, семейный Режиссер: Раман Хуэй, Чон Ён-док, Пол Уотлинг В ролях: Мишель Йео, Люси Лью, Сандра О, Лия Льюис, Генри Голдинг, Диана Ли Иносанто, Патрик Галлахер, Боуэн Янг, Брэндон СуХу, Эмма Шеннон, Дебора Эс Крэйг, Хэн Хуа Тан, Райан Кристофер Ли Описание: История об обычном мальчике Томе из Сан-Франциско, который неожиданно узнает о том, что его эксцентричная бабуля — хранительница яйца феникса. Когда старушка погибает в бою, и ее дух уносится в призрачной повозке, Тому предстоит стать новым защитником яйца и обучиться древней магии у своего наставника — тигра по имени мистер Ху. Так герой знакомится с волшебными существами, представляющими собой знаки зодиака и умеющими превращаться из животных в человека. Страна: США Студия: Paramount Animation, Jane Startz Productions, The Monk Studio Продолжительность: 01:24:15 Перевод : Профессиональный многоголосый | NewStudio Файл Формат: MKV Качество: WEB-DLRip-AVC Видео: MPEG-4 AVC, 768x320, 1156 Кбит/с Аудио: AAC-HE, 2 ch, 84 Кбит/с Субтитры: Русские (full (AI))
[+] MIОбщее Уникальный идентификатор : 80528053720715243869812818274383807301 (0x3C952395A9345AD507259AAFF2EBC345) Полное имя : D:MOVIESThe_Tigers_Apprentice.2024.WEB-DLRip-AVC.ExKinoRay.mkv Формат : Matroska Версия формата : Version 4 Размер файла : 746 Мбайт Продолжительность : 1 ч. 24 м. Общий поток : 1 238 Кбит/сек Частота кадров : 23,976 кадра/сек Дата кодирования : 2024-02-10 07:58:24 UTC Программа кодирования : mkvmerge v46.0.0 ('No Deeper Escape') 64-bit Библиотека кодирования : libebml v1.3.10 + libmatroska v1.5.2 Видео Идентификатор : 1 Формат : AVC Формат/Информация : Advanced Video Codec Профиль формата : High@L4.1 Настройки формата : CABAC / 11 Ref Frames Параметр CABAC формата : Да Параметр RefFrames формата : 11 кадров Идентификатор кодека : V_MPEG4/ISO/AVC Продолжительность : 1 ч. 23 м. Битрейт : 1 156 Кбит/сек Ширина : 768 пикселей Высота : 320 пикселей Соотношение сторон : 2,40:1 Режим частоты кадров : Постоянный Частота кадров : 23,976 (24000/1001) кадра/сек Цветовое пространство : YUV Субдискретизация насыщенности : 4:2:0 Битовая глубина : 8 бит Тип развёртки : Прогрессивная Бит/(Пиксели*Кадры) : 0.196 Размер потока : 694 Мбайт (93%) Библиотека кодирования : x264 core 164 r3107 a8b68eb Настройки программы : cabac=1 / ref=11 / deblock=1:-2:-2 / analyse=0x3:0x133 / me=umh / subme=10 / psy=1 / psy_rd=1.05:0.12 / mixed_ref=1 / me_range=32 / chroma_me=1 / trellis=2 / 8x8dct=1 / cqm=0 / deadzone=21,11 / fast_pskip=0 / chroma_qp_offset=-3 / threads=6 / lookahead_threads=1 / sliced_threads=0 / nr=0 / decimate=0 / interlaced=0 / bluray_compat=0 / constrained_intra=0 / bframes=10 / b_pyramid=2 / b_adapt=2 / b_bias=0 / direct=3 / weightb=1 / open_gop=0 / weightp=2 / keyint=240 / keyint_min=23 / scenecut=40 / intra_refresh=0 / rc=2pass / mbtree=0 / bitrate=1156 / ratetol=1.0 / qcomp=0.60 / qpmin=0 / qpmax=69 / qpstep=4 / cplxblur=20.0 / qblur=0.5 / ip_ratio=1.40 / pb_ratio=1.30 / aq=3:1.00 Язык : English Default : Да Forced : Нет Цветовой диапазон : Limited Основные цвета : BT.709 Характеристики трансфера : BT.709 Коэффициенты матрицы : BT.709 Аудио Идентификатор : 2 Формат : AAC LC SBR Формат/Информация : Advanced Audio Codec Low Complexity with Spectral Band Replication Коммерческое название : HE-AAC Настройки формата : Explicit Идентификатор кодека : A_AAC-2 Продолжительность : 1 ч. 24 м. Битрейт : 84,0 Кбит/сек Каналы : 2 канала Channel layout : L R Частота : 48,0 КГц Частота кадров : 23,438 кадра/сек (2048 SPF) Метод сжатия : С потерями Задержка видео : 31 мс. Размер потока : 50,6 Мбайт (7%) Язык : Russian Default : Да Forced : Нет Текст Идентификатор : 3 Формат : UTF-8 Идентификатор кодека : S_TEXT/UTF8 Идентификатор кодека/Информация : UTF-8 Plain Text Продолжительность : 1 ч. 12 м. Битрейт : 85 бит/сек Частота кадров : 0,269 кадр/сек Count of elements : 1178 Размер потока : 45,8 Кбайт (0%) Заголовок : ] Язык : Russian Default : Нет Forced : Нет Меню 00:00:00.000 : en:Chapter 01 01:14:08.000 : en:Credits
[+] Скриншоты

Всего файлов в раздаче: 1 
The_Tigers_Apprentice.2024.WEB-DLRip-AVC.ExKinoRay.mkv745.97 MB

Похожие раздачи по запросу - Ученик
2024-02-11 magnet Ученик тигра / The Tiger's Apprentice (2024) WEB-DL-HEVC 2160p | 4K | SDR | P, L 9.99 GB ↑ 0 ↓ 0
2024-02-10 magnet Ученик тигра / The Tiger's Apprentice (2024) WEB-DL 1080p от New-Team | P 3.85 GB ↑ 0 ↓ 0
2023-11-08 magnet Андрей Первухин - Ученик 1 (2023) МР3 419.85 MB ↑ 0 ↓ 0

Комментарии


Зарегистрируйтесь чтобы добавить комментарий
Торрент клиент
byTorrent - программа для загрузки торрент-файлов.

Скачать byTorrent.exe (1,5 МБ)

Скачать byTorrent.zip (0,6 МБ)

Поддержи torrent.by
российских рублей
(300 российских рублей это 4$)

Обратная связь rss

End game ©