↑↓torrent.by
Поиск
Логин:  Регистрация
Пароль:

Очень плохая девчонка / Sick Girl (2023) WEB-DL 1080p | D

download Скачать торрент-файл   magnet Магнитная ссылка Размер: 3.69 GB Добавлен: 2024-02-10 17:00
Пиры будут получены из сети DHT
Последний сидер был замечен 2024-02-20 18:34
Информация о фильме Название: Очень плохая девчонка Оригинальное название: Sick Girl Год выпуска: 2023 Жанр: драма, комедия Выпущено: США / Grindstone Entertainment Group, Whereabouts Unknown Режиссер: Дженнифер Крам В ролях: Нина Добрев, Венди Маклендон-Кови, Рэй Маккиннон, Шерри Кола, Стефани Кениг, Дэн Баккедаль, Брэндон Майкал Смит, Рэнди Уэйн, Хейли Магнус, Эд Спинелли Описание: Когда-то Рен и ее подруги были настоящим ураганом на любой тусовке. Но время идет, и собраться вместе, как в былые времена, почти нет возможности. Кто-то смирился с новой тихой жизнью, а кто-то не готов оставлять шумные вечеринки позади. Чтобы собрать старую компашку снова, Рен идет на небольшую ложь, которая выходит из-под контроля. Теперь девушкам придется очень постараться, чтобы остаться близкими подругами. Это приключение либо окончательно разрушит их узы, либо укрепит их. Продолжительность: 01:38:31 Перевод: Дублированный (Велес) Субтитры: Отсутствуют Файл Формат: MKV Качество: WEB-DL 1080p Видео: AVC/H.264, 1920x804, ~5000 Kbps Аудио: E-AC3, 6 ch, 384 Kbps - Русский (DUB) Релиз от: karfagen1975
[+] MediaInfo:General Unique ID : 152595829739916449405628159331740840923 (0x72CCE3461AF59B3AB1BD693DDA9673DB) Complete name : Sick.Girl.2023.WEB-DL.1080p.mkv Format : Matroska Format version : Version 4 File size : 3.69 GiB Duration : 1 h 38 min Overall bit rate : 5 354 kb/s Frame rate : 24.000 FPS Encoded date : 2024-02-09 22:31:59 UTC Writing application : mkvmerge v75.0.0 ('Goliath') 64-bit Writing library : libebml v1.4.4 + libmatroska v1.7.1 Video ID : 1 Format : AVC Format/Info : Advanced Video Codec Format profile : High@L4 Format settings : CABAC / 3 Ref Frames Format settings, CABAC : Yes Format settings, Reference frames : 3 frames Codec ID : V_MPEG4/ISO/AVC Duration : 1 h 38 min Bit rate : 5 000 kb/s Width : 1 920 pixels Height : 804 pixels Display aspect ratio : 2.40:1 Frame rate mode : Constant Frame rate : 24.000 FPS Color space : YUV Chroma subsampling : 4:2:0 Bit depth : 8 bits Scan type : Progressive Bits/(Pixel*Frame) : 0.135 Stream size : 3.42 GiB (93%) Title : Очень плохая девчонка (2023) WEB-DL 1080p Writing library : x264 core 164 r3095 baee400 Encoding settings : cabac=1 / ref=4 / deblock=1:-1:-1 / analyse=0x3:0x133 / me=umh / subme=9 / psy=1 / psy_rd=0.40:1.00 / mixed_ref=1 / me_range=24 / chroma_me=1 / trellis=0 / 8x8dct=1 / cqm=0 / deadzone=21,11 / fast_pskip=1 / chroma_qp_offset=-2 / threads=3 / lookahead_threads=1 / sliced_threads=0 / nr=0 / decimate=1 / interlaced=0 / bluray_compat=0 / stitchable=1 / constrained_intra=0 / bframes=8 / b_pyramid=1 / b_adapt=0 / b_bias=0 / direct=3 / weightb=1 / open_gop=0 / weightp=2 / keyint=72 / keyint_min=37 / scenecut=0 / intra_refresh=0 / rc_lookahead=40 / rc=2pass / mbtree=1 / bitrate=5000 / ratetol=1.0 / qcomp=0.80 / qpmin=1 / qpmax=69 / qpstep=4 / cplxblur=20.0 / qblur=0.5 / vbv_maxrate=7500 / vbv_bufsize=10000 / nal_hrd=none / filler=0 / ip_ratio=1.40 / aq=1:1.00 Language : English Default : Yes Forced : No Color range : Limited Color primaries : BT.709 Transfer characteristics : BT.709 Matrix coefficients : BT.709 Audio ID : 2 Format : E-AC-3 Format/Info : Enhanced AC-3 Commercial name : Dolby Digital Plus Codec ID : A_EAC3 Duration : 1 h 38 min Bit rate mode : Constant Bit rate : 384 kb/s Channel(s) : 6 channels Channel layout : L R C LFE Ls Rs Sampling rate : 48.0 kHz Frame rate : 31.250 FPS (1536 SPF) Compression mode : Lossy Stream size : 271 MiB (7%) Title : DUB (Veles) Language : Russian Service kind : Complete Main Default : Yes Forced : No
[+] Скриншоты
[+] Дополнительные скриншоты:

Всего файлов в раздаче: 1 
Sick.Girl.2023.WEB-DL.1080p.mkv3.69 GB

Похожие раздачи по запросу - Очень
2024-02-10 magnet Очень плохая девчонка / Sick Girl (2023) WEB-DLRip от ELEKTRI4KA | D 1.46 GB ↑ 0 ↓ 0
2023-12-04 magnet Плохие парни: Очень плохой праздник / Поганці: Зіпсоване свято / The Bad Guys: A Very Bad Holiday (2023) WEB-DL 1080p | D | Netflix | UKR 1.16 GB ↑ 0 ↓ 0
2023-11-07 magnet Очень синяя борода [01-03 из 03] (2023) WEBRip 1080p от ExKinoRay 6.70 GB ↑ 0 ↓ 0
2023-11-07 magnet Очень синяя борода [S01] (2023) WEBip-AVC от Files-х 1.95 GB ↑ 0 ↓ 0
2023-04-25 magnet Очень плохая семейка / The Estate (2022) BDRip 1080p от селезень | D, P 7.87 GB ↑ 0 ↓ 0

Комментарии


Зарегистрируйтесь чтобы добавить комментарий
Торрент клиент
byTorrent - программа для загрузки торрент-файлов.

Скачать byTorrent.exe (1,5 МБ)

Скачать byTorrent.zip (0,6 МБ)

Поддержи torrent.by
российских рублей
(300 российских рублей это 4$)

Обратная связь rss

End game ©