↑↓torrent.by
Поиск
Логин:  Регистрация
Пароль:

Международная космическая станция / I.S.S. [2023, триллер, драма, WEB-DLRip-AVC] DVO (ViruseProject)

download Скачать торрент-файл   magnet Магнитная ссылка Размер: 1.76 GB Добавлен: il68k 2024-02-10 17:27
Пиры будут получены из сети DHT
Последний сидер был замечен вчера в 22:00
Международная космическая станция / I.S.S.

Страна: США Жанр: триллер, драма Год выпуска: 2023 Продолжительность: 01:35:42
Перевод: Профессиональный (двухголосый закадровый) | ViruseProject Оригинальная аудиодорожка: английский
Режиссер: Габриэла Каупертуэйт
В ролях: Ариана Дебоуз, Крис Мессина, Джон Галлахер мл., Мария Машкова, Коста Ронин, Пилу Асбек
Описание: На МКС прибывают два астронавта, интернациональная команда устраивает радушную встречу, и теперь экипаж состоит из трёх русских и трёх американцев. Пока новенькие осваиваются, на Земле вдруг начинается масштабная война между Россией и США — обе стороны связываются со своими космонавтами и приказывают им взять станцию под контроль любыми средствами.

Качество видео: WEB-DLRip-AVC Формат видео: MKV Видео: MPEG-4 AVC, 1727 Кbps, 1024x432 (2.40:1), 24.000 fps, 0.163 bit/pixel, High@L4.1 Аудио 1: 48 kHz, AC3 Dolby Digital, 3/2 (L,C,R,l,r) + LFE ch, ~448 kbps | Русский (ViruseProject) Аудио 2: 48 kHz, AC3 Dolby Digital, 3/2 (L,C,R,l,r) + LFE ch, ~448 kbps | Английский Субтитры: русские, английские (forced, full, SDH) (SRT) Релиз от: vitolinform
[+] MediaInfo
General
Unique ID                                : 4197551286490606675638428022463140544 (0x3286B41B89E0CA4D8305E01DAFE12C0)
Complete name                            : Mezhdunarodnaya.kosmicheskaya.stanciya.2023.AMZN.WEB-DLRip.AVC.mkv
Format                                   : Matroska
Format version                           : Version 4
File size                                : 1.76 GiB
Duration                                 : 1 h 35 min
Overall bit rate                         : 2 625 kb/s
Frame rate                               : 23.976 FPS
Movie name                               : I.S.S. (2023) WEB-DLRip AVC
Encoded date                             : 2024-02-09 09:29:13 UTC
Writing application                      : mkvmerge v76.0 ('Celebration') 64-bit
Writing library                          : libebml v1.4.4 + libmatroska v1.7.1
Attachments                              : poster.jpg / log.log

Video
ID                                       : 1
Format                                   : AVC
Format/Info                              : Advanced Video Codec
Format profile                           : High@L4.1
Format settings                          : CABAC / 15 Ref Frames
Format settings, CABAC                   : Yes
Format settings, Reference frames        : 15 frames
Codec ID                                 : V_MPEG4/ISO/AVC
Duration                                 : 1 h 35 min
Bit rate                                 : 1 727 kb/s
Width                                    : 1 024 pixels
Height                                   : 432 pixels
Display aspect ratio                     : 2.40:1
Frame rate mode                          : Constant
Frame rate                               : 23.976 (24000/1001) FPS
Color space                              : YUV
Chroma subsampling                       : 4:2:0
Bit depth                                : 8 bits
Scan type                                : Progressive
Bits/(Pixel*Frame)                       : 0.163
Stream size                              : 1.15 GiB (66%)
Title                                    : Международная космическая станция / I.S.S. (2023)
Writing library                          : x264 core 164 r3164 c196240
Encoding settings                        : cabac=1 / ref=15 / deblock=1:-3:-3 / analyse=0x3:0x113 / me=umh / subme=10 / psy=1 / psy_rd=1.00:0.05 / mixed_ref=1 / me_range=32 / chroma_me=1 / trellis=2 / 8x8dct=1 / cqm=0 / deadzone=21,11 / fast_pskip=0 / chroma_qp_offset=-3 / threads=12 / lookahead_threads=3 / sliced_threads=0 / nr=0 / decimate=0 / interlaced=0 / bluray_compat=0 / constrained_intra=0 / bframes=11 / b_pyramid=2 / b_adapt=2 / b_bias=0 / direct=1 / weightb=1 / open_gop=0 / weightp=2 / keyint=240 / keyint_min=24 / scenecut=40 / intra_refresh=0 / rc_lookahead=40 / rc=crf / mbtree=0 / crf=18.0 / qcomp=0.60 / qpmin=0 / qpmax=69 / qpstep=4 / vbv_maxrate=50000 / vbv_bufsize=62500 / crf_max=0.0 / nal_hrd=none / filler=0 / ip_ratio=1.40 / pb_ratio=1.30 / aq=1:1.00
Language                                 : English
Default                                  : Yes
Forced                                   : No
Color range                              : Limited
Color primaries                          : BT.709
Transfer characteristics                 : BT.709
Matrix coefficients                      : BT.709

Audio #1
ID                                       : 2
Format                                   : AC-3
Format/Info                              : Audio Coding 3
Commercial name                          : Dolby Digital
Codec ID                                 : A_AC3
Duration                                 : 1 h 35 min
Bit rate mode                            : Constant
Bit rate                                 : 448 kb/s
Channel(s)                               : 6 channels
Channel layout                           : L R C LFE Ls Rs
Sampling rate                            : 48.0 kHz
Frame rate                               : 31.250 FPS (1536 SPF)
Compression mode                         : Lossy
Stream size                              : 307 MiB (17%)
Title                                    : DVO | ViruseProject
Language                                 : Russian
Service kind                             : Complete Main
Default                                  : Yes
Forced                                   : No

Audio #2
ID                                       : 3
Format                                   : AC-3
Format/Info                              : Audio Coding 3
Commercial name                          : Dolby Digital
Codec ID                                 : A_AC3
Duration                                 : 1 h 35 min
Bit rate mode                            : Constant
Bit rate                                 : 448 kb/s
Channel(s)                               : 6 channels
Channel layout                           : L R C LFE Ls Rs
Sampling rate                            : 48.0 kHz
Frame rate                               : 31.250 FPS (1536 SPF)
Compression mode                         : Lossy
Stream size                              : 307 MiB (17%)
Title                                    : English
Language                                 : English
Service kind                             : Complete Main
Default                                  : No
Forced                                   : No

Text #1
ID                                       : 4
Format                                   : UTF-8
Codec ID                                 : S_TEXT/UTF8
Codec ID/Info                            : UTF-8 Plain Text
Duration                                 : 1 h 28 min
Bit rate                                 : 75 b/s
Frame rate                               : 0.194 FPS
Count of elements                        : 1027
Stream size                              : 48.6 KiB (0%)
Title                                    : Full | Subtitled by stirlooo
Language                                 : Russian
Default                                  : No
Forced                                   : No

Text #2
ID                                       : 5
Format                                   : UTF-8
Codec ID                                 : S_TEXT/UTF8
Codec ID/Info                            : UTF-8 Plain Text
Duration                                 : 1 h 21 min
Bit rate                                 : 5 b/s
Frame rate                               : 0.030 FPS
Count of elements                        : 147
Stream size                              : 3.39 KiB (0%)
Title                                    : Forced
Language                                 : English
Default                                  : No
Forced                                   : No

Text #3
ID                                       : 6
Format                                   : UTF-8
Codec ID                                 : S_TEXT/UTF8
Codec ID/Info                            : UTF-8 Plain Text
Duration                                 : 1 h 26 min
Bit rate                                 : 50 b/s
Frame rate                               : 0.207 FPS
Count of elements                        : 1072
Stream size                              : 32.1 KiB (0%)
Title                                    : Full
Language                                 : English
Default                                  : No
Forced                                   : No

Text #4
ID                                       : 7
Format                                   : UTF-8
Codec ID                                 : S_TEXT/UTF8
Codec ID/Info                            : UTF-8 Plain Text
Duration                                 : 1 h 28 min
Bit rate                                 : 59 b/s
Frame rate                               : 0.241 FPS
Count of elements                        : 1280
Stream size                              : 38.6 KiB (0%)
Title                                    : SDH
Language                                 : English
Default                                  : No
Forced                                   : No
[+] Скриншоты

Всего файлов в раздаче: 1 
Mezhdunarodnaya.kosmicheskaya.stanciya.2023.AMZN.WEB-DLRip.AVC.mkv1.76 GB

Похожие раздачи по запросу - Международная
2024-02-08 magnet Международная космическая станция / I.S.S. (2023) WEB-DLRip-AVC от DoMiNo & селезень | P2 | ViruseProject 1.44 GB ↑ 0 ↓ 0
2024-02-08 magnet Международная космическая станция / I.S.S. (2023) WEB-DL 1080p | ViruseProject 6.79 GB ↑ 0 ↓ 0
2024-02-08 magnet Международная космическая станция / I.S.S. (2023) WEB-DL 1080p от New-Team | P2 | ViruseProject 3К6.49 GB ↑ 0 ↓ 0
2024-02-08 magnet Международная космическая станция / I.S.S. (2023) WEB-DL 720p от ExKinoRay | ViruseProject 2.97 GB ↑ 0 ↓ 0
2024-02-08 magnet Международная космическая станция / I.S.S. (2023) WEB-DLRip от MegaPeer | P2 | ViruseProject 1.46 GB ↑ 1 ↓ 0
2024-02-07 magnet Международная космическая станция / I.S.S. (2023) WEB-DL 1080p от JNS82 | Sub 2К6.37 GB ↑ 0 ↓ 0

Комментарии


Зарегистрируйтесь чтобы добавить комментарий
Торрент клиент
byTorrent - программа для загрузки торрент-файлов.

Скачать byTorrent.exe (1,5 МБ)

Скачать byTorrent.zip (0,6 МБ)

Поддержи torrent.by
российских рублей
(300 российских рублей это 4$)

Обратная связь rss

End game ©