↑↓torrent.by
Поиск
Логин:  Регистрация
Пароль:

Хозяин морей: На краю Земли / Master and Commander: The Far Side of the World (2003) WEBRip-AVC | D | Open Matte

download Скачать торрент-файл   magnet Магнитная ссылка Размер: 2.18 GB Раздают: 2 Качают: 0 Добавлен: il68k 2024-02-10 17:46
Пиры будут получены из сети DHT
Последний сидер был замечен сегодня в 12:37
Информация о фильме Название: Хозяин морей: На краю Земли Оригинальное название: Master and Commander: The Far Side of the World Год выхода: 2003 Жанр: боевик, драма, приключения, военный, история Режиссер: Питер Уир В ролях: Рассел Кроу, Пол Беттани, Джеймс Д’Арси, Эдвард Вудалл, Крис Ларкин, Макс Пиркис, Джек Рэндалл, Макс Бениц, Ли Инглби, Ричард Пейтс О фильме: Время Наполеоновских войн. Военный парусник Ее Величества «Сюрприз», бороздящий просторы Атлантики, был неожиданно атакован огромным неизвестным кораблем, появившимся из тумана. Благодаря смелости и находчивости команды «Сюрпризу» удается уйти от смерти. Несмотря на тяжелые повреждения и потери, капитан Джек Обри по прозвищу Счастливчик принимает решение преследовать врага и устремляется в погоню, которая уведет его на край света. Страна: США Студия: 20th Century Fox Film Corporation, Miramax Films, Samuel Goldwyn Films LLC, Universal Pictures Продолжительность: 02:18:19 Перевод: Профессиональный дублированный (Лицензия BD CEE) Невафильм Файл Формат: Matroska Качество: WEBRip-AVC Видео: AVC/H.264, 1024x576, 23.976 fps, ~1862 Kbps Аудио 1: AAC, 2 ch, 192 kbps - русский Аудио 2: AAC, 2 ch, 192 kbps - английский Субтитры: Русские, английские (SRT) full Семпл
[+] Скриншоты
[+] Сравнительные скриншоты с BDRip
[+] MediaInfo Общее Уникальный идентификатор: 321819142838687375836021990842097571712 (0xF21C1CC56513BBAD5A50B525A9799780) Полное имя: Хозяин морей; На краю Земли .mkv Формат: Matroska Версия формата: Version 4 Размер файла: 2, 18 Гбайт Продолжительность: 2 ч. 18 м. Общий поток: 2 255 Кбит/сек Частота кадров: 23, 976 кадра/сек Дата кодирования: 2023-09-06 06:58:34 UTC Программа кодирования: mkvmerge v30.0.0 ('Interstellar') 64-bit Библиотека кодирования: libebml v1.3.6 + libmatroska v1.4.9 Обложка: Yes Attachments: Cover.jpg Видео Идентификатор: 1 Формат: AVC Формат/Информация: Advanced Video Codec Профиль формата: High@L4.1 Настройки формата: CABAC / 11 Ref Frames Параметр CABAC формата: Да Параметр RefFrames формата: 11 кадров Идентификатор кодека: V_MPEG4/ISO/AVC Продолжительность: 2 ч. 18 м. Битрейт: 1 862 Кбит/сек Ширина: 1 024 пикселя Высота: 576 пикселей Соотношение сторон: 16:9 Режим частоты кадров: Постоянный Частота кадров: 23, 976 (24000/1001) кадра/сек Цветовое пространство: YUV Субдискретизация насыщенности: 4:2:0 Битовая глубина: 8 бит Тип развёртки: Прогрессивная Бит/(Пиксели*Кадры): 0.132 Размер потока: 1, 80 Гбайт (83%) Заголовок: Rip by il68k {Avidemux} Библиотека кодирования: x264 core 164 r3081 19856cc Настройки программы: cabac=1 / ref=11 / deblock=1:-3:-3 / analyse=0x3:0x133 / me=umh / subme=11 / psy=1 / psy_rd=1.00:0.00 / mixed_ref=1 / me_range=32 / chroma_me=1 / trellis=2 / 8x8dct=1 / cqm=0 / deadzone=21, 0 / fast_pskip=1 / chroma_qp_offset=-2 / threads=3 / lookahead_threads=1 / sliced_threads=0 / nr=0 / decimate=1 / interlaced=0 / bluray_compat=0 / constrained_intra=0 / bframes=11 / b_pyramid=2 / b_adapt=2 / b_bias=0 / direct=3 / weightb=1 / open_gop=0 / weightp=2 / keyint=250 / keyint_min=25 / scenecut=0 / intra_refresh=0 / rc=2pass / mbtree=0 / bitrate=1862 / ratetol=1.0 / qcomp=0.60 / qpmin=10 / qpmax=51 / qpstep=4 / cplxblur=20.0 / qblur=0.5 / ip_ratio=1.00 / pb_ratio=1.00 / aq=1:1.00 Язык: English Default: Да Forced: Нет Цветовой диапазон: Limited Основные цвета: BT.709 Характеристики трансфера: BT.709 Коэффициенты матрицы: BT.709 Аудио #1 Идентификатор: 2 Формат: AAC LC Формат/Информация: Advanced Audio Codec Low Complexity Идентификатор кодека: A_AAC-2 Продолжительность: 2 ч. 18 м. Битрейт: 192 Кбит/сек Каналы: 2 канала Channel layout: L R Частота: 44, 1 КГц Частота кадров: 43, 066 кадра/сек (1024 SPF) Метод сжатия: С потерями Размер потока: 193 Мбайт (9%) Заголовок: Дубляж {BD CEE} Язык: Russian Default: Да Forced: Нет Аудио #2 Идентификатор: 3 Формат: AAC LC Формат/Информация: Advanced Audio Codec Low Complexity Идентификатор кодека: A_AAC-2 Продолжительность: 2 ч. 18 м. Битрейт: 192 Кбит/сек Каналы: 2 канала Channel layout: L R Частота: 44, 1 КГц Частота кадров: 43, 066 кадра/сек (1024 SPF) Метод сжатия: С потерями Размер потока: 193 Мбайт (9%) Заголовок: Original {English} Язык: English Default: Нет Forced: Нет Текст #1 Идентификатор: 4 Формат: UTF-8 Идентификатор кодека: S_TEXT/UTF8 Идентификатор кодека/Информация: UTF-8 Plain Text Продолжительность: 2 ч. 5 м. Битрейт: 69 бит/сек Частота кадров: 0, 135 кадр/сек Count of elements: 1018 Размер потока: 63, 9 Кбайт (0%) Заголовок: RUS full Язык: Russian Default: Нет Forced: Нет Текст #2 Идентификатор: 5 Формат: UTF-8 Идентификатор кодека: S_TEXT/UTF8 Идентификатор кодека/Информация: UTF-8 Plain Text Продолжительность: 2 ч. 2 м. Битрейт: 47 бит/сек Частота кадров: 0, 143 кадр/сек Count of elements: 1057 Размер потока: 42, 4 Кбайт (0%) Заголовок: ENG full Язык: English Default: Нет Forced: Нет
[+] Награды Оскар, 2004 год * Лучшая работа оператора * Лучший монтаж звука Британская академия, 2004 год * Лучшие костюмы * Лучший звук * Лучшая работа художника-постановщика * Премия имени Дэвида Лина за достижения в режиссуре (Питер Уир)
[+] Знаете ли вы, что... * Для того чтобы актеры, играющие членов команды корабля, сильнее сплотились, Рассел Кроу организовывал регулярные игры в регби. * В процессе производства картины, использовалось примерно 2000 костюмов. * Съемочный процесс составил около 100 дней на студии Байя в Мексике, и только 10 дней в море. * Рассел Кроу самостоятельно исполнил большую часть игры на скрипке. Позже, он признался, что обучение стало самым сложным, что он когда-либо делал для фильма. * Для исследования своей роли Пол Беттани отправился в Королевский колледж хирургов в Лондоне, чтобы обучится использованию хирургических инструментов 18-го столетия.
Релиз от: il68k

Всего файлов в раздаче: 1 
Хозяин морей; На краю Земли [2003].mkv2.18 GB

Похожие раздачи по запросу - Хозяин
2024-01-08 magnet Хозяин тайги (1968) WEB-DLRip-AVC от ExKinoRay 1.30 GB ↑ 0 ↓ 0
2023-09-05 magnet Хозяин морей: На краю Земли / Master and Commander: The Far Side of the World (2003) BDRip 1080p | D 11.55 GB ↑ 0 ↓ 0
2023-03-27 magnet Хозяин [01-10 из 10] (2021) WEB-DLRip от Files-х 6.22 GB ↑ 0 ↓ 0
2023-03-18 magnet Корнеплоды. СВ газеты «Хозяин» №2 февраль (2019) PDF 65.05 MB ↑ 0 ↓ 0
2023-03-18 magnet Ранние овощи. СВ газеты «Хозяин» №1 январь (2019) PDF 70.79 MB ↑ 0 ↓ 0

Комментарии


Зарегистрируйтесь чтобы добавить комментарий
Торрент клиент
byTorrent - программа для загрузки торрент-файлов.

Скачать byTorrent.exe (1,5 МБ)

Скачать byTorrent.zip (0,6 МБ)

Поддержи torrent.by
российских рублей
(300 российских рублей это 4$)

Обратная связь rss

End game ©