↑↓torrent.by
Поиск
Логин:  Регистрация
Пароль:

Грязный Гарри 5: Игра в смерть / Dirty Harry 5: The Dead Pool (1988) BDRip 1080p | D, P, A

download Скачать торрент-файл   magnet Магнитная ссылка Размер: 9.87 GB Добавлен: 2024-02-11 05:00
Пиры будут получены из сети DHT
Последний сидер был замечен 2024-02-11 18:55
Информация о фильме Название: Грязный Гарри 5: Игра в смерть Оригинальное название: Dirty Harry 5: The Dead Pool Год выхода: 1988 Жанр: боевик, триллер, криминал Режиссер: Бадди Ван Хорн В ролях: Клинт Иствуд, Патриция Кларксон, Лиам Нисон, Ивэн С. Ким, Дэвид Хант, Майкл Карри, Майкл Гудвин, Дарвин Джиллетт, Энтони Чарнота, Кристофер П. Бил О фильме: Быть известным не входит в планы детектива Гарри Кэллахана из Сан-Франциско. Его не радует перспектива оказаться в одной компании с рок звездой, кинокритиком и известным телевизионным ведущим. К тому же все трое уже мертвы. Эти знаменитости были в тайном, так называемом «Списке мертвецов», из-за которого заключались пари и делались ставки. А теперь Гарри обнаружил, что в этом списке еще одно хорошо знакомое ему имя: его собственное. Страна: США Продолжительность: 01:31:13 Перевод: Профессиональный (дублированный) студия "Варус-Видео" Перевод 2: Профессиональный (многоголосый закадровый) Перевод 3: Украинский: Профессиональный (многоголосый закадровый) К1 Перевод 4: Авторский (одноголосый закадровый) А.Гаврилов Оригинальная аудиодорожка: английский Файл Тип релиза: BDRip 1080p Контейнер: MKV Видео: 1920x1080 (16:9), 23.976 fps, AVC, ~13.0 Mbps, 0.262 bits/pixel Аудио: Russian, 48.0 KHz, AC3, 2 ch, 192 Kbps - Дубляж - студия "Варус-Видео" Аудио 2: Russian, 48.0 KHz, AC3, 2 ch, 192 Kbps - Многоголосый закадровый Аудио 3: Ukrainian, 48.0 KHz, AC3, 2 ch, 192 Kbps - Многоголосый закадровый - К1 Аудио 4: Russian, 48.0 KHz, AC3, 6 ch, 384 Kbps - Авторский - А.Гаврилов Аудио 5: English, 48.0 KHz, DTS, 6 ch, 1510 Kbps - DTS 1536 kbit/s Субтитры: английские Формат субтитров: softsub (SRT) Сэмпл: https://yadi.sk/i/LAtXQcyP3QAbHQ
[+] MediaInfo Общее Уникальный идентификатор : 182378741151412773423482502735841183370 (0x8934DE2D6783B199997F668C9053C68A) Полное имя : D:ФільмиФільми 1080рThe.Dead.Pool.1988.1080p.BluRay.DTS.x264.3xRus.Ukr.Eng.mkv Формат : Matroska Версия формата : Version 4 / Version 2 Размер файла : 9,87 Гбайт Продолжительность : 1 ч. 31 м. Общий поток : 15,5 Мбит/сек Дата кодирования : UTC 2017-11-29 15:13:32 Программа кодирования : mkvmerge v7.9.0 ('Birds') 64bit Библиотека кодирования : libebml v1.3.1 + libmatroska v1.4.2 Видео Идентификатор : 1 Формат : AVC Формат/Информация : Advanced Video Codec Профиль формата : High@L4.1 Параметр CABAC формата : Да Параметр RefFrames формата : 4 кадра Идентификатор кодека : V_MPEG4/ISO/AVC Продолжительность : 1 ч. 31 м. Битрейт : 13,0 Мбит/сек Ширина : 1920 пикселей Высота : 1080 пикселей Соотношение сторон : 16:9 Режим частоты кадров : Постоянный Частота кадров : 23,976 кадра/сек Цветовое пространство : YUV Субдискретизация насыщенности : 4:2:0 Битовая глубина : 8 бит Тип развёртки : Прогрессивная Бит/(Пиксели*Кадры) : 0.262 Размер потока : 8,30 Гбайт (84%) Библиотека кодирования : x264 core 107 r1772 c9dad9e Настройки программы : cabac=1 / ref=4 / deblock=1:-3:-3 / analyse=0x3:0x113 / me=umh / subme=9 / psy=1 / psy_rd=1.10:0.15 / mixed_ref=1 / me_range=48 / chroma_me=1 / trellis=2 / 8x8dct=1 / cqm=0 / deadzone=21,11 / fast_pskip=0 / chroma_qp_offset=-2 / threads=12 / sliced_threads=0 / nr=0 / decimate=1 / interlaced=0 / constrained_intra=0 / bframes=6 / b_pyramid=2 / b_adapt=2 / b_bias=0 / direct=3 / weightb=1 / open_gop=0 / weightp=2 / keyint=250 / keyint_min=23 / scenecut=40 / intra_refresh=0 / rc_lookahead=60 / rc=2pass / mbtree=1 / bitrate=13034 / ratetol=1.0 / qcomp=0.70 / qpmin=10 / qpmax=51 / qpstep=4 / cplxblur=20.0 / qblur=0.5 / vbv_maxrate=45000 / vbv_bufsize=40000 / ip_ratio=1.40 / aq=1:0.90 / nal_hrd=none Язык : English Default : Да Forced : Нет Аудио #1 Идентификатор : 2 Формат : AC-3 Формат/Информация : Audio Coding 3 Параметр Endianness формата : Big Идентификатор кодека : A_AC3 Продолжительность : 1 ч. 28 м. Вид битрейта : Постоянный Битрейт : 192 Кбит/сек Каналы : 2 канала Расположение каналов : Front: L R Частота : 48,0 КГц Частота кадров : 31,250 кадров/сек (1536 SPF) Битовая глубина : 16 бит Метод сжатия : С потерями Размер потока : 122 Мбайт (1%) Заголовок : Дубляж - студия "Варус-Видео" Язык : Russian ServiceKind/String : Complete Main Default : Да Forced : Да Аудио #2 Идентификатор : 3 Формат : AC-3 Формат/Информация : Audio Coding 3 Режим : Dolby Digital Параметр Endianness формата : Big Идентификатор кодека : A_AC3 Продолжительность : 1 ч. 28 м. Вид битрейта : Постоянный Битрейт : 192 Кбит/сек Каналы : 2 канала Расположение каналов : Front: L R Частота : 48,0 КГц Частота кадров : 31,250 кадров/сек (1536 SPF) Битовая глубина : 16 бит Метод сжатия : С потерями Размер потока : 122 Мбайт (1%) Заголовок : Многоголосый закадровый Язык : Russian ServiceKind/String : Complete Main Default : Нет Forced : Да Аудио #3 Идентификатор : 4 Формат : AC-3 Формат/Информация : Audio Coding 3 Параметр Endianness формата : Big Идентификатор кодека : A_AC3 Продолжительность : 1 ч. 31 м. Вид битрейта : Постоянный Битрейт : 192 Кбит/сек Каналы : 2 канала Расположение каналов : Front: L R Частота : 48,0 КГц Частота кадров : 31,250 кадров/сек (1536 SPF) Битовая глубина : 16 бит Метод сжатия : С потерями Размер потока : 125 Мбайт (1%) Заголовок : Многоголосый закадровый - К1 Язык : Ukrainian ServiceKind/String : Complete Main Default : Нет Forced : Нет Аудио #4 Идентификатор : 5 Формат : AC-3 Формат/Информация : Audio Coding 3 Параметр Endianness формата : Big Идентификатор кодека : A_AC3 Продолжительность : 1 ч. 31 м. Вид битрейта : Постоянный Битрейт : 384 Кбит/сек Каналы : 6 каналов Расположение каналов : Front: L C R, Side: L R, LFE Частота : 48,0 КГц Частота кадров : 31,250 кадров/сек (1536 SPF) Битовая глубина : 16 бит Метод сжатия : С потерями Размер потока : 251 Мбайт (2%) Заголовок : Авторский - А.Гаврилов Язык : Russian ServiceKind/String : Complete Main Default : Нет Forced : Нет Аудио #5 Идентификатор : 6 Формат : DTS Формат/Информация : Digital Theater Systems Режим : 16 Параметр Endianness формата : Big Идентификатор кодека : A_DTS Продолжительность : 1 ч. 31 м. Вид битрейта : Постоянный Битрейт : 1510 Кбит/сек Каналы : 6 каналов Расположение каналов : Front: L C R, Side: L R, LFE Частота : 48,0 КГц Частота кадров : 93,750 кадра/сек (512 SPF) Битовая глубина : 24 бит Метод сжатия : С потерями Размер потока : 985 Мбайт (10%) Заголовок : DTS 1536 kbit/s Язык : English Default : Нет Forced : Нет Текст Идентификатор : 7 Формат : UTF-8 Идентификатор кодека : S_TEXT/UTF8 Идентификатор кодека/Информация : UTF-8 Plain Text Продолжительность : 1 ч. 26 м. Битрейт : 51 бит/сек ElementCount : 926 Размер потока : 32,4 Кбайт (0%) Язык : English Default : Да Forced : Нет
[+] Скриншоты

Всего файлов в раздаче: 1 
The.Dead.Pool.1988.1080p.BluRay.DTS.x264.3xRus.Ukr.Eng.mkv9.87 GB

Похожие раздачи по запросу - Грязный
2024-02-02 magnet Грязный Юг / The Dirty South (2023) BDRip от JNS82 | L | AlphaProject 1.46 GB ↑ 0 ↓ 0

Комментарии

ad_1080
Огромное спасибо релизеру и всем раздающим! Фильм отличный! Помню в начале 90-х в прокате шел фильм под названием "Смертельный список", никто не знает это и есть "Игра в смерть", или абсолютно другой фильм? Заранее спасибо за профессиональный ответ :)


Зарегистрируйтесь чтобы добавить комментарий
Торрент клиент
byTorrent - программа для загрузки торрент-файлов.

Скачать byTorrent.exe (1,5 МБ)

Скачать byTorrent.zip (0,6 МБ)

Поддержи torrent.by
российских рублей
(300 российских рублей это 4$)

Обратная связь rss

End game ©