↑↓torrent.by
Поиск
Логин:  Регистрация
Пароль:

Как заниматься сексом / How to Have Sex (2023) BDRip-AVC от New-Team | D

download Скачать торрент-файл   magnet Магнитная ссылка Размер: 1.46 GB Добавлен: 2024-02-11 05:00
Пиры будут получены из сети DHT
Последний сидер был замечен вчера в 23:04
Как заниматься сексом / How to Have Sex Год выпуска: 2023 Выпущено: Великобритания, Греция, BFI, Film4, Heretic, Wild Swim Films Жанр: Драма Режиссер: Молли Мэннинг Уокер / Molly Manning Walker В ролях: Миа Маккенна-Брюс, Шон Томас, Лара Пик, Энва Льюис, Сэмюэл Боттомли, Лаура Эмблер, Анна Антониадес, Дэйзи Джелли, Финлэй Вэйн Ласт, Эли Лоан О фильме: Три подруги летят из Лондона на каникулы на Крит. Они только что окончили школу и стараются не думать о результатах экзаменов, а сосредоточиться на главном — вечеринках до рассвета и бесконечном веселье. Это лето должно стать лучшим в их жизни. Продолжительность: 01:30:37 Перевод: Профессиональный (полное дублирование) | Велес Субтитры: Русские (форс). *** Версия русского WEB-DL отличается от версии Blu-ray, отсутствует несколько сцен, диалоги присутствуют только в одной сцене переведено русскими форсированными субтитрами Раздача от: Автор релиза: JNS82. Формат: MKV Качество: BDRip-AVC | How.to.Have.Sex.2023.COMPLETE.BLURAY-UNTOUCHED Видео: MPEG-4 AVC, 1924 Кбит/с, 1024x552 Аудио #1: AC3, 6 ch, 384 Кбит/с | RUS |
[+] MediaInfoОбщее Уникальный идентификатор : 252061079936187036089748792149346472075 (0xBDA132BB07F8DDCDD2DD737733A9D08B) Полное имя : D:TorrentsHow.to.Have.Sex.2023.BDRi-AVC_от New-Team_by_JNS82.mkv Формат : Matroska Версия формата : Version 4 Размер файла : 1,46 Гбайт Продолжительность : 1 ч. 30 м. Общий поток : 2 307 Кбит/сек Название фильма : How.to.Have.Sex.2023.BDRi-AVC_от New-Team_by_JNS82 Дата кодирования : UTC 2024-02-10 18:40:25 Программа кодирования : mkvmerge v79.0 ('Funeral Pyres') 64-bit Библиотека кодирования : libebml v1.4.4 + libmatroska v1.7.1 Видео Идентификатор : 1 Формат : AVC Формат/Информация : Advanced Video Codec Профиль формата : High@L4.1 Настройки формата : CABAC / 10 Ref Frames Параметр CABAC формата : Да Параметр RefFrames формата : 10 кадров Идентификатор кодека : V_MPEG4/ISO/AVC Продолжительность : 1 ч. 30 м. Битрейт : 1 924 Кбит/сек Ширина : 1 024 пикселя Высота : 552 пикселя Соотношение сторон : 1,85:1 Режим частоты кадров : Постоянный Частота кадров : 24,000 кадра/сек Цветовое пространство : YUV Субдискретизация насыщенности : 4:2:0 Битовая глубина : 8 бит Тип развёртки : Прогрессивная Бит/(Пиксели*Кадры) : 0.142 Размер потока : 1,22 Гбайт (83%) Библиотека кодирования : x264 core 164 r3156+57M NewTeam t_mod_New Настройки программы : cabac=1 / ref=10 / deblock=1:-3:-3 / analyse=0x3:0x133 / me=umh / subme=10 / psy=1 / fade_compensate=0.00 / psy_rd=1.03:0.05 / mixed_ref=1 / me_range=32 / chroma_me=1 / trellis=2 / 8x8dct=1 / cqm=0 / deadzone=21,11 / fast_pskip=0 / chroma_qp_offset=-3 / threads=17 / lookahead_threads=4 / sliced_threads=0 / nr=0 / decimate=0 / interlaced=0 / bluray_compat=0 / constrained_intra=0 / fgo=0 / bframes=10 / b_pyramid=2 / b_adapt=2 / b_bias=0 / direct=3 / weightb=1 / open_gop=0 / weightp=2 / keyint=250 / keyint_min=23 / scenecut=40 / intra_refresh=0 / rc_lookahead=40 / rc=2pass / mbtree=0 / bitrate=1924 / ratetol=1.0 / qcomp=0.60 / qpmin=0:0:0 / qpmax=69:69:69 / qpstep=4 / cplxblur=20.0 / qblur=0.5 / vbv_maxrate=50000 / vbv_bufsize=62500 / nal_hrd=none / filler=0 / ip_ratio=1.40 / pb_ratio=1.30 / aq=1:1.00 / aq-sensitivity=10.00 / aq-factor=1.00:1.00:1.00 / aq2=0 / aq3=0 Язык : English Default : Да Forced : Нет Аудио Идентификатор : 2 Формат : AC-3 Формат/Информация : Audio Coding 3 Коммерческое название : Dolby Digital Идентификатор кодека : A_AC3 Продолжительность : 1 ч. 30 м. Вид битрейта : Постоянный Битрейт : 384 Кбит/сек Каналы : 6 каналов Channel layout : L R C LFE Ls Rs Частота : 48,0 КГц Частота кадров : 31,250 кадров/сек (1536 SPF) Метод сжатия : С потерями Размер потока : 249 Мбайт (17%) Заголовок : DUB - Велес Язык : Russian Service kind : Complete Main Default : Да Forced : Нет Текст Идентификатор : 3 Формат : UTF-8 Идентификатор кодека : S_TEXT/UTF8 Идентификатор кодека/Информация : UTF-8 Plain Text Продолжительность : 5 с. 832 мс. Битрейт : 159 бит/сек Count of elements : 2 Размер потока : 116 байт (0%) Заголовок : Язык : Russian Default : Да Forced : Нет Меню 00:00:00.000 : :Chapter 01 00:07:00.916 : :Chapter 2 00:11:47.750 : :Chapter 3 00:16:30.166 : :Chapter 4 00:20:58.125 : :Chapter 5 00:25:07.250 : :Chapter 6 00:29:07.875 : :Chapter 7 00:33:03.708 : :Chapter 8 00:38:53.625 : :Chapter 9 00:46:13.708 : :Chapter 10 00:51:25.583 : :Chapter 11 00:57:23.625 : :Chapter 12 01:02:43.375 : :Chapter 13 01:07:09.250 : :Chapter 14 01:15:41.416 : :Chapter 15 01:24:55.750 : :Chapter 16 01:30:36.000 : :Chapter 17

Всего файлов в раздаче: 1 
How.to.Have.Sex.2023.BDRi-AVC_от New-Team_by_JNS82.mkv1.46 GB

Похожие раздачи по запросу - Как
Вчера magnet Как Деревянко Ломоносова играл [S01] (2024) WEB-DLRip-AVC от Generalfilm | КПК 1.40 GB ↑ 0 ↓ 0
2024-03-03 magnet Вячеслав Желудков - Как вылечить ВСД. Мой опыт (2020) PDF 534.25 kB ↑ 0 ↓ 0
2024-03-01 magnet Как приручить монстров / Ханна и монстры / Hanna y los monstruos / Hanna i els monstres (2023) WEB-DL 1080p | D 2.89 GB ↑ 0 ↓ 1
2024-03-01 magnet Как Деревянко Ломоносова играл [S01] (2024) WEB-DLRip-AVC от Files-x 3.95 GB ↑ 1 ↓ 0
2024-03-01 magnet Как Деревянко Ломоносова играл [S01] (2024) WEB-DL 1080p 1К9.19 GB ↑ 0 ↓ 0
2024-03-01 magnet Как Деревянко Ломоносова играл [S01] (2023) WEB-DL 720p от Files-x 4.86 GB ↑ 0 ↓ 0
2024-03-01 magnet Как Деревянко Ломоносова играл [S01] (2024) WEB-DLRip 4.09 GB ↑ 0 ↓ 0

Комментарии

tepka1899
Драма! Десять из Десяти!


Зарегистрируйтесь чтобы добавить комментарий
Торрент клиент
byTorrent - программа для загрузки торрент-файлов.

Скачать byTorrent.exe (1,5 МБ)

Скачать byTorrent.zip (0,6 МБ)

Поддержи torrent.by
российских рублей
(300 российских рублей это 4$)

Обратная связь rss

End game ©