↑↓torrent.by
Поиск
Логин:  Регистрация
Пароль:

Infected Mushroom - Re:born (2024) FLAC

download Скачать торрент-файл   magnet Магнитная ссылка Размер: 467.88 MB Добавлен: 2024-02-11 05:00
Пиры будут получены из сети DHT
Последний сидер был замечен 2024-02-12 00:36
Название: Re:born Исполнитель: Infected Mushroom Год: 2024 Жанр: Psy-Trance, Electro-House Страна: Psy-trance duo from Israel. Amit Duvdevani & Erez Eisen Продолжительность: 01:12:06 Формат/Кодек: FLAC Битрейт аудио: Lossless|WEB-DL Официальный сайт Издатель (лейбл): © 2024 Mushroom Touring Inc. ℗ 2024 Infected Mushroom Publishing/Kobalt Music Services America Inc. Источник: https://www.qobuz.com/gb-en/album/reborn-infected-mushroom/oq5j39b6263ga Catalog: - IM14BPT Трек-лист 1. Release Me REBORN (6:35) 2. Wider REBORN (5:43) 3. Return of the Shadows REBORN (8:15) 4. Disco Mushroom REBORN (8:48) 5. Dracul REBORN (7:48) 6. Mush Mushi REBORN (7:41) 7. Dream Theater REBORN (8:14) 8. S is here REBORN (9:05) 9. Dancing with Kadafi REBORN (10:22) https://www.beatport.com/release/reborn/4414650 https://www.facebook.com/infectedmushroom https://youtu.be/BB1RrGJiOnU
[+] Замер динамического диапазона (DR) foobar2000 2.0 / Замер динамического диапазона (DR) 1.1.1 Дата отчёта: 2024-02-10 14:21:19 -------------------------------------------------------------------------------- Анализ: Infected Mushroom / REBORN -------------------------------------------------------------------------------- DR Пики RMS Продолжительность трека -------------------------------------------------------------------------------- DR4 0.00 дБ -6.40 дБ 6:36 01-Release Me REBORN DR4 -0.10 дБ -6.66 дБ 5:44 02-Wider REBORN DR4 0.00 дБ -5.66 дБ 8:15 03-Return of the Shadows REBORN DR4 -0.03 дБ -6.05 дБ 8:49 04-Disco Mushroom REBORN DR4 -0.01 дБ -6.24 дБ 7:49 05-Dracul REBORN DR4 -0.10 дБ -5.71 дБ 7:42 06-Mush Mushi REBORN DR4 0.00 дБ -5.47 дБ 8:14 07-Dream Theater REBORN DR5 -0.10 дБ -7.03 дБ 9:06 08-S is here REBORN DR4 -0.10 дБ -6.10 дБ 10:22 09-Dancing with Kadafi REBORN -------------------------------------------------------------------------------- Количество треков: 9 Реальные значения DR: DR4 Частота: 44100 Гц Каналов: 2 Разрядность: 16 Битрейт: 927 кбит/с Кодек: FLAC ================================================================================

Всего файлов в раздаче: 11 
01 - Release Me REBORN.flac39.04 MB
02 - Wider REBORN.flac35.75 MB
03 - Return of the Shadows REBORN.flac52.13 MB
04 - Disco Mushroom REBORN.flac57.71 MB
05 - Dracul REBORN.flac52.83 MB
06 - Mush Mushi REBORN.flac49.44 MB
07 - Dream Theater REBORN.flac57.37 MB
08 - S is here REBORN.flac54.14 MB
09 - Dancing with Kadafi REBORN.flac69.05 MB
Cover.jpg448.02 kB
Показать все файлы

Похожие раздачи по запросу - Infected
2024-02-11 magnet Infected Mushroom - Re:born (2024) MP3 169.60 MB ↑ 0 ↓ 0

Комментарии


Зарегистрируйтесь чтобы добавить комментарий
Торрент клиент
byTorrent - программа для загрузки торрент-файлов.

Скачать byTorrent.exe (1,5 МБ)

Скачать byTorrent.zip (0,6 МБ)

Поддержи torrent.by
российских рублей
(300 российских рублей это 4$)

Обратная связь rss

End game ©