↑↓torrent.by
Поиск
Логин:  Регистрация
Пароль:

Груз «300» (1989) WEB-DLRip от New-Team

download Скачать торрент-файл   magnet Магнитная ссылка Размер: 1.09 GB Добавлен: 2024-02-11 11:00
Пиры будут получены из сети DHT
Последний сидер был замечен 2024-02-16 08:31
Страна: СССР Производство: Свердловская киностудия Жанр: драма, военный Год выпуска: 1989 Продолжительность: 01:15:30 Перевод: не требуется Оригинальная аудиодорожка: русский Cубтитры: нет Режиссер: Георгий Кузнецов В ролях: Ромуальд Анцанс, Александр Данильченко, Александр Ческидов, Евгений Бунтов, Виктор Соловьев, Петр Вашчик, Сергей Иванов, Насир Соффи, Акхат Тураев, Мусо Исоев... Подробнее об актерах Описание: Афганистан. 1986 год. От границы в сторону Кабула по горной дороге движется колонна советской военной бронетехники. С воздуха ее прикрывают боевые вертолеты. Путь колонны лежит через единственный в этих краях мост. Об этом прекрасно осведомлены афганские моджахеды и под руководством американских инструкторов готовят операцию по захвату моста и уничтожению заблокированной в этом случае советской техники. В это время находящаяся в горах советская геологическая экспедиция подвергается ночному нападению душманов. Афганская охрана разбегается, и геологи решают уехать в Кабул. По дороге им сообщают о приближающейся военной колонне, с которой добираться до Кабула им будет значительно безопасней. Не знают они только одного, что уже давно включены моджахедами в операцию по захвату моста… Исходник: WEB-DL 1080p Тип релиза: WEB-DLRip Контейнер: AVI Видео: 720x544 (4:3), 29,970 кадров/сек, XviD 73 ~ 1863 кбит/сек, 0.159 бит/пиксель Аудио: 48 кГц, Dolby Digital AC3 2.0, 192 кбит/сек Раздача от:
[+] MediaInfo Общее Полное имя : Груз 300.1989.WEB-DLRip__by_AVP_Studio.avi Формат : AVI Формат/Информация : Audio Video Interleave Настройки формата : BitmapInfoHeader / WaveFormatEx Размер файла : 1,09 Гбайт Продолжительность : 1 ч. 15 м. Общий поток : 2 067 Кбит/сек Частота кадров : 29,970 кадров/сек Программа кодирования : VirtualDubMod 1.5.10.3 | www.virtualdub-fr.org || (build 2550/release) Библиотека кодирования : VirtualDubMod build 2550/release Видео Идентификатор : 0 Формат : MPEG-4 Visual Профиль формата : Advanced Simple@L5 Настройки формата : BVOP1 / Custom Matrix Параметр BVOP формата : 1 Параметр QPel формата : Нет Параметр GMC формата : Без точки перехода Параметр матрицы формата : Выборочная Идентификатор кодека : XVID Идентификатор кодека/Подсказка : XviD Продолжительность : 1 ч. 15 м. Битрейт : 1 863 Кбит/сек Ширина : 720 пикселей Высота : 544 пикселя Соотношение сторон : 4:3 Частота кадров : 29,970 (30000/1001) кадров/сек Цветовое пространство : YUV Субдискретизация насыщенности : 4:2:0 Битовая глубина : 8 бит Тип развёртки : Прогрессивная Метод сжатия : С потерями Бит/(Пиксели*Кадры) : 0.159 Размер потока : 1 006 Мбайт (90%) Библиотека кодирования : XviD 73 Аудио Идентификатор : 1 Формат : AC-3 Формат/Информация : Audio Coding 3 Коммерческое название : Dolby Digital Идентификатор кодека : 2000 Продолжительность : 1 ч. 15 м. Вид битрейта : Постоянный Битрейт : 192 Кбит/сек Каналы : 2 канала Channel layout : L R Частота : 48,0 КГц Частота кадров : 31,250 кадров/сек (1536 SPF) Метод сжатия : С потерями Размер потока : 104 Мбайт (9%) Выравнивание : Разделение по промежуткам Продолжительность промежутка : 33 мс. (1,00 видеокадр) Время предзагрузки промежутка : 500 мс
[+] Скриншоты

Всего файлов в раздаче: 1 
Груз 300.1989.WEB-DLRip_[New-team]_by_AVP_Studio.avi1.09 GB

Комментарии


Зарегистрируйтесь чтобы добавить комментарий
Торрент клиент
byTorrent - программа для загрузки торрент-файлов.

Скачать byTorrent.exe (1,5 МБ)

Скачать byTorrent.zip (0,6 МБ)

Поддержи torrent.by
российских рублей
(300 российских рублей это 4$)

Обратная связь rss

End game ©