↑↓torrent.by
Поиск
Логин:  Регистрация
Пароль:

Абсолютная власть / Absolute Power (1997) BDRip от New-Team | P

download Скачать торрент-файл   magnet Магнитная ссылка Размер: 1.46 GB Добавлен: 2024-02-11 11:00
Пиры будут получены из сети DHT
Последний сидер был замечен 2024-02-14 13:32
Страна: США Производство: Castle Rock Entertainment, Malpaso Productions Жанр: триллер, драма, криминал Год выпуска: 1997 Продолжительность: 02:01:09 Перевод: Профессиональный (многоголосый закадровый) Оригинальная аудиодорожка: английский Cубтитры: нет Режиссер: Клинт Иствуд / Clint Eastwood В ролях: Клинт Иствуд (Luther Whitney), Джин Хэкмен (President Allen Richmond), Эд Харрис (Seth Frank), Лора Линни (Kate Whitney), Скотт Гленн (Bill Burton), Деннис Хейсбёрт (Tim Collin), Джуди Дэвис (Gloria Russell), Э. Г. Маршалл (Walter Sullivan), Мелора Хардин (Christy Sullivan), Кеннет Уэлш (Sandy Lord), Пенни Джонсон (Laura Simon), Ричард Дженкинс (Michael McCarty)... Подробнее об актерах Описание: Лютер Уитни — гениальный вор драгоценностей. Он свое отсидел еще тридцать лет назад. С тех пор не имел никаких дел с полицией. А тут — «черт попутал». Основательно подготовившись, он забрался в роскошный особняк знаменитого филантропа Салливана и стянул женских украшений на многие-многие тысячи. Но в этот момент в спальню вошли мужчина и женщина. Женщина — Кристи, супруга Салливана, мужчина — страшно подумать — президент Соединенных Штатов Ричмонд! Уитни спрятался и наблюдал, как любовный флирт перерос в борьбу. Президент проявил склонность к садизму, а Кристи взялась за нож для резки бумаги и ранила партнера. В спальню ворвались охранники, и Кристи застрелили. К несчастью, Уитни не удалось остаться инкогнито, хотя он и сумел сбежать… Исходник: BDRemux 1080p Тип релиза: BDRip Контейнер: AVI Видео: 720x304 (2,35:1), 23,976 кадра/сек, XviD 73 ~ 943 кбит/сек, 0.180 бит/пиксель Аудио: 48 кГц, Dolby Digital AC3 5.1, 384 кбит/сек MVO Аудио: 48 кГц, Dolby Digital AC3 5.1, 384 кбит/сек Английский Раздача от:
[+] MediaInfo Общее Полное имя : Абсолютная власть.1997.BDRip__by_AVP_Studio.avi Формат : AVI Формат/Информация : Audio Video Interleave Размер файла : 1,46 Гбайт Продолжительность : 2 ч. 1 м. Общий поток : 1725 Кбит/сек Программа кодирования : VirtualDubModRus 1.5.10.2 (build 2542/release) Библиотека кодирования : VirtualDubMod build 2542/release Видео Идентификатор : 0 Формат : MPEG-4 Visual Профиль формата : Advanced Simple@L5 Параметр BVOP формата : 1 Параметр QPel формата : Нет Параметр GMC формата : Без точки перехода Параметр матрицы формата : Выборочная Идентификатор кодека : XVID Идентификатор кодека/Подсказка : XviD Продолжительность : 2 ч. 1 м. Битрейт : 943 Кбит/сек Ширина : 720 пикселей Высота : 304 пикселя Соотношение сторон : 2,35:1 Частота кадров : 23,976 кадра/сек Цветовое пространство : YUV Субдискретизация насыщенности : 4:2:0 Битовая глубина : 8 бит Тип развёртки : Прогрессивная Метод сжатия : С потерями Бит/(Пиксели*Кадры) : 0.180 Размер потока : 817 Мбайт (55%) Библиотека кодирования : XviD 73 Аудио #1 Идентификатор : 1 Формат : AC-3 Формат/Информация : Audio Coding 3 Расширение режима : CM (complete main) Параметр Endianness формата : Big Идентификатор кодека : 2000 Продолжительность : 2 ч. 1 м. Вид битрейта : Постоянный Битрейт : 384 Кбит/сек Каналы : 6 каналов Расположение каналов : Front: L C R, Side: L R, LFE Частота : 48,0 КГц Битовая глубина : 16 бит Метод сжатия : С потерями Задержка видео : 1 с. 280 мс. Размер потока : 333 Мбайт (22%) Выравнивание : Разделение по промежуткам Продолжительность промежутка : 42 мс. (1,00 видеокадр) Время предзагрузки промежутка : 500 мс. Аудио #2 Идентификатор : 2 Формат : AC-3 Формат/Информация : Audio Coding 3 Расширение режима : CM (complete main) Параметр Endianness формата : Big Идентификатор кодека : 2000 Продолжительность : 2 ч. 1 м. Вид битрейта : Постоянный Битрейт : 384 Кбит/сек Каналы : 6 каналов Расположение каналов : Front: L C R, Side: L R, LFE Частота : 48,0 КГц Битовая глубина : 16 бит Метод сжатия : С потерями Размер потока : 333 Мбайт (22%) Выравнивание : Разделение по промежуткам Продолжительность промежутка : 42 мс. (1,00 видеокадр) Время предзагрузки промежутка : 500 мс
[+] Скриншоты

Всего файлов в раздаче: 1 
Абсолютная власть.1997.BDRip_[New-team]_by_AVP_Studio.avi1.46 GB

Похожие раздачи по запросу - Абсолютная
2024-02-10 magnet Абсолютная власть / Absolute Power (1997) BDRip-AVC от New-Team | P 1К2.18 GB ↑ 0 ↓ 0

Комментарии


Зарегистрируйтесь чтобы добавить комментарий
Торрент клиент
byTorrent - программа для загрузки торрент-файлов.

Скачать byTorrent.exe (1,5 МБ)

Скачать byTorrent.zip (0,6 МБ)

Поддержи torrent.by
российских рублей
(300 российских рублей это 4$)

Обратная связь rss

End game ©