↑↓torrent.by
Поиск
Логин:  Регистрация
Пароль:

Всемирный потоп / The End We Start From (2023) WEB-DL 2160p | 4K | HDR | Dolby Vision | P | NewStudio

download Скачать торрент-файл   magnet Магнитная ссылка Размер: 18.27 GB Добавлен: 2024-02-11 11:00
Пиры будут получены из сети DHT
Последний сидер был замечен 2024-02-21 23:57
Информация о фильме Название: Всемирный потоп Оригинальное название: The End We Start From Год выпуска: 2023 Жанр: драма, триллер Режиссер: Махалия Бело В ролях: Джоди Комер, Джоэль Фрай, Кэтрин Уотерстон, Бенедикт Камбербэтч, Марк Стронг, Джина Макки, Нина Сосанья, Ив Рассу, Раманике Ахлувалиа, Нил Белл О фильме: Англию настигает наводнение невиданных масштабов. В Лондоне вода постепенно проникает в дом беременной женщины, и она с трудом успевает добраться до больницы, где рожает долгожданного ребёнка. Но и здесь становится небезопасно. Женщина вместе с младенцем и мужем переезжают за город в дом его родителей. Но вскоре трагические обстоятельства разлучают супругов, а мать и дитя пытаются выжить в диких условиях нового мира. Выпущено: Великобритания / Anton, BBC Film, BFI Film Fund, C2 Motion Picture Group, Hera Pictures Продолжительность: 01:41:38 Перевод: Профессиональный (многоголосый, закадровый) | NewStudio Субтитры: Русские (Full (stirlooo)), английские (Full, SDH) Файл Качество: WEB-DL 2160p Видео: 3840x1608 at 23.976 fps, MPEG-H HEVC HDR Video, 24400 kbps Аудио 1: AC3, 48.0 kHz, 6 ch, ~384 kbps - | Русский | Аудио 2: E-AC3, 48.0 kHz, 6 ch, ~960 kbps - | Английский | Формат субтитров: softsub (SRT)
[+] M/IThe.End.We.Start.From.2023.x265.WEB-DL.2160p.HDR-DV.mkv Формат : Matroska Версия формата : Version 4 Размер файла : 18,3 Гбайт Продолжительность : 1 ч. 41 м. Общий поток : 25,7 Мбит/сек Частота кадров : 23,976 кадра/сек Дата кодирования : 2024-02-08 21:32:55 UTC Программа кодирования : mkvmerge v82.0 ('I'm The President') 64-bit Библиотека кодирования : libebml v1.4.5 + libmatroska v1.7.1 Видео Идентификатор : 1 Формат : HEVC Формат/Информация : High Efficiency Video Coding Профиль формата : Main 10@L5@High HDR format : Dolby Vision, Version 1.0, dvhe.08.06, BL+RPU, HDR10 compatible / SMPTE ST 2094 App 4, Version 1, HDR10+ Profile B compatible Идентификатор кодека : V_MPEGH/ISO/HEVC Продолжительность : 1 ч. 41 м. Битрейт : 24,4 Мбит/сек Ширина : 3 840 пикселей Высота : 1 608 пикселей Соотношение сторон : 2,39:1 Режим частоты кадров : Постоянный Частота кадров : 23,976 (24000/1001) кадра/сек Частота кадров в оригинале : 23,976 (23976/1000) кадра/сек Цветовое пространство : YUV Субдискретизация насыщенности : 4:2:0 (Type 2) Битовая глубина : 10 бит Бит/(Пиксели*Кадры) : 0.165 Размер потока : 17,3 Гбайт (95%) Язык : English (GB) Default : Да Forced : Да Цветовой диапазон : Limited Основные цвета : BT.2020 Характеристики трансфера : PQ Коэффициенты матрицы : BT.2020 non-constant Mastering display color primaries : Display P3 Mastering display luminance : min: 0.0050 cd/m2, max: 1000 cd/m2 Maximum Content Light Level : 683 cd/m2 Maximum Frame-Average Light Level : 146 cd/m2 Аудио #1 Идентификатор : 2 Формат : AC-3 Формат/Информация : Audio Coding 3 Коммерческое название : Dolby Digital Идентификатор кодека : A_AC3 Продолжительность : 1 ч. 41 м. Вид битрейта : Постоянный Битрейт : 384 Кбит/сек Каналы : 6 каналов Channel layout : L R C LFE Ls Rs Частота : 48,0 КГц Частота кадров : 31,250 кадров/сек (1536 SPF) Метод сжатия : С потерями Размер потока : 279 Мбайт (1%) Заголовок : MVO (NewStudio) Язык : Russian Service kind : Complete Main Default : Да Forced : Да Аудио #2 Идентификатор : 3 Формат : E-AC-3 Формат/Информация : Enhanced AC-3 Коммерческое название : Dolby Digital Plus Идентификатор кодека : A_EAC3 Продолжительность : 1 ч. 41 м. Вид битрейта : Постоянный Битрейт : 960 Кбит/сек Каналы : 6 каналов Channel layout : L R C LFE Ls Rs Частота : 48,0 КГц Частота кадров : 31,250 кадров/сек (1536 SPF) Метод сжатия : С потерями Размер потока : 698 Мбайт (4%) Язык : English (GB) Service kind : Complete Main Default : Нет Forced : Нет Текст #1 Идентификатор : 4 Формат : UTF-8 Идентификатор кодека : S_TEXT/UTF8 Идентификатор кодека/Информация : UTF-8 Plain Text Продолжительность : 1 ч. 34 м. Битрейт : 54 бит/сек Частота кадров : 0,136 кадр/сек Count of elements : 767 Размер потока : 37,3 Кбайт (0%) Заголовок : stirloo Язык : Russian Default : Нет Forced : Нет Текст #2 Идентификатор : 5 Формат : UTF-8 Идентификатор кодека : S_TEXT/UTF8 Идентификатор кодека/Информация : UTF-8 Plain Text Продолжительность : 1 ч. 33 м. Битрейт : 38 бит/сек Частота кадров : 0,159 кадр/сек Count of elements : 894 Размер потока : 26,2 Кбайт (0%) Заголовок : Full Язык : English (US) Default : Нет Forced : Нет Текст #3 Идентификатор : 6 Формат : UTF-8 Идентификатор кодека : S_TEXT/UTF8 Идентификатор кодека/Информация : UTF-8 Plain Text Продолжительность : 1 ч. 34 м. Битрейт : 51 бит/сек Частота кадров : 0,211 кадр/сек Count of elements : 1188 Размер потока : 35,8 Кбайт (0%) Заголовок : SDH Язык : English (US) Default : Нет Forced : Нет

Всего файлов в раздаче: 1 
The.End.We.Start.From.2023.x265.WEB-DL.2160p.HDR-DV .mkv18.27 GB

Похожие раздачи по запросу - Всемирный
2024-02-10 magnet Всемирный потоп / The End We Start From (2023) WEB-DLRip 720p от DoMiNo & селезень | P | NewStudio 1К2.46 GB ↑ 1 ↓ 0
2024-02-09 magnet Всемирный потоп / The End We Start From (2023) WEB-DLRip от New-Team | P | NewStudio 1.46 GB ↑ 2 ↓ 0
2024-02-09 magnet Всемирный потоп / The End We Start From (2023) WEB-DL 1080p от New-Team | P | NewStudio 7.11 GB ↑ 0 ↓ 0

Комментарии


Зарегистрируйтесь чтобы добавить комментарий
Торрент клиент
byTorrent - программа для загрузки торрент-файлов.

Скачать byTorrent.exe (1,5 МБ)

Скачать byTorrent.zip (0,6 МБ)

Поддержи torrent.by
российских рублей
(300 российских рублей это 4$)

Обратная связь rss

End game ©