↑↓torrent.by
Поиск
Логин:  Регистрация
Пароль:

Как заниматься сексом / How to Have Sex (2023) BDRip-AVC от DoMiNo & селезень | D

download Скачать торрент-файл   magnet Магнитная ссылка Размер: 2.16 GB Добавлен: 2024-02-11 11:00
Пиры будут получены из сети DHT
Последний сидер был замечен 2024-02-13 19:53
Информация о фильме Название: Как заниматься сексом Оригинальное название: How to Have Sex Год выхода: 2023 Жанр: Драма Режиссер: Молли Мэннинг Уокер В ролях: Миа Маккенна-Брюс, Шон Томас, Лара Пик, Энва Льюис, Сэмюэл Боттомли, Лаура Эмблер, Анна Антониадес, Дэйзи Джелли, Финлэй Вэйн Ласт, Эли Лоан О фильме: Три подруги из Лондона, только что окончившие школу, собираются провести лучшее лето в своей жизни. Они отправляются на Крит, чтобы ходить по клубам, пить и танцевать — все, что угодно, лишь бы не думать о результатах экзаменов. Но вечеринки до рассвета и безрассудное веселье могут обернуться не тем, о чем им мечталось. «Как заниматься сексом» (2023) — дебютная драма Молли Мэннинг Уокер, исследующая темы дружбы, желаний, сексуальности, последствий пренебрежения, зависти и социальных стереотипов; победитель секции «Особый взгляд» Каннского кинофестиваля-2023. Страна: Великобритания, Греция Студия: BFI, Film4, Heretic, Wild Swim Films Продолжительность: 01:30:37 Перевод: Дублированный | Велес Субтитры: Русские (Forced), Английские, французские Файл Формат: Matroska Качество: BDRip-AVC Видео: 1024x554 at 24.000 fps, x264@L4.1, ~2572 kbps Аудио 1: AC3, 6 ch, ~384 kbps - | Русский | Аудио 2: AC3, 6 ch, ~448 kbps - | Английский | Формат субтитров: softsub (SRT) ***Рип от: -=DoMiNo=-
[+] M/Ix264 : frame I:678 Avg QP:16.38 size: 60818 x264 : frame P:29634 Avg QP:18.73 size: 27406 x264 : frame B:100176 Avg QP:20.99 size: 8931 General Unique ID : 326441707595626901449897141009596425741 (0xF59662CF4ADF01E4CFFEEEAB7FF2260D) Complete name : R:How.to.Have.Sex.2023.BDRip.x264.seleZen.mkv Format : Matroska Format version : Version 4 File size : 2.16 GiB Duration : 1 h 30 min Overall bit rate : 3 406 kb/s Frame rate : 24.000 FPS Movie name : How.to.Have.Sex.2023.BDRip.x264.seleZen Encoded date : 2024-02-10 20:15:08 UTC Writing application : mkvmerge v82.0 ('I'm The President') 64-bit Writing library : libebml v1.4.5 + libmatroska v1.7.1 Cover : Yes Attachments : cover.jpg / small_cover.jpg Video ID : 1 Format : AVC Format/Info : Advanced Video Codec Format profile : High@L4.1 Format settings : CABAC / 14 Ref Frames Format settings, CABAC : Yes Format settings, Reference : 14 frames Codec ID : V_MPEG4/ISO/AVC Duration : 1 h 30 min Bit rate : 2 572 kb/s Width : 1 024 pixels Height : 554 pixels Display aspect ratio : 1.85:1 Frame rate mode : Constant Frame rate : 24.000 FPS Color space : YUV Chroma subsampling : 4:2:0 Bit depth : 8 bits Scan type : Progressive Bits/(Pixel*Frame) : 0.189 Stream size : 1.63 GiB (76%) Title : -=DoMiNo=- Writing library : x264 core 164 r3173 -DoMiNo Encoding settings : cabac=1 / ref=14 / deblock=1:-2:-2 / analyse=0x3:0x133 / me=umh / subme=10 / psy=1 / psy_rd=1.03:0.05 / mixed_ref=1 / me_range=32 / chroma_me=1 / trellis=2 / 8x8dct=1 / cqm=0 / deadzone=21,11 / fast_pskip=0 / chroma_qp_offset=-3 / threads=17 / lookahead_threads=4 / sliced_threads=0 / nr=0 / decimate=0 / interlaced=0 / bluray_compat=0 / constrained_intra=0 / bframes=12 / b_pyramid=2 / b_adapt=2 / b_bias=0 / direct=1 / weightb=1 / open_gop=0 / weightp=2 / keyint=250 / keyint_min=24 / scenecut=40 / intra_refresh=0 / rc_lookahead=60 / rc=crf / mbtree=0 / crf=19.0 / qcomp=0.60 / qpmin=0 / qpmax=69 / qpstep=4 / vbv_maxrate=50000 / vbv_bufsize=62500 / crf_max=0.0 / nal_hrd=none / filler=0 / ip_ratio=1.40 / pb_ratio=1.30 / aq=3:0.80 Language : English Default : Yes Forced : No Color range : Limited Color primaries : BT.709 Transfer characteristics : BT.709 Matrix coefficients : BT.709 Audio #1 ID : 2 Format : AC-3 Format/Info : Audio Coding 3 Commercial name : Dolby Digital Codec ID : A_AC3 Duration : 1 h 30 min Bit rate mode : Constant Bit rate : 384 kb/s Channel(s) : 6 channels Channel layout : L R C LFE Ls Rs Sampling rate : 48.0 kHz Frame rate : 31.250 FPS (1536 SPF) Compression mode : Lossy Stream size : 249 MiB (11%) Title : Дублированный | Велес Language : Russian Service kind : Complete Main Default : Yes Forced : No Audio #2 ID : 3 Format : AC-3 Format/Info : Audio Coding 3 Commercial name : Dolby Digital Codec ID : A_AC3 Duration : 1 h 30 min Bit rate mode : Constant Bit rate : 448 kb/s Channel(s) : 6 channels Channel layout : L R C LFE Ls Rs Sampling rate : 48.0 kHz Frame rate : 31.250 FPS (1536 SPF) Compression mode : Lossy Stream size : 290 MiB (13%) Title : Original Language : English Service kind : Complete Main Default : No Forced : No Text #1 ID : 4 Format : UTF-8 Codec ID : S_TEXT/UTF8 Codec ID/Info : UTF-8 Plain Text Duration : 8 min 36 s Bit rate : 2 b/s Frame rate : 0.010 FPS Count of elements : 5 Stream size : 136 Bytes (0%) Title : Forced Language : Russian Default : No Forced : No Text #2 ID : 5 Format : UTF-8 Codec ID : S_TEXT/UTF8 Codec ID/Info : UTF-8 Plain Text Duration : 1 h 24 min Bit rate : 47 b/s Frame rate : 0.205 FPS Count of elements : 1042 Stream size : 29.8 KiB (0%) Language : English Default : No Forced : No Text #3 ID : 6 Format : UTF-8 Codec ID : S_TEXT/UTF8 Codec ID/Info : UTF-8 Plain Text Duration : 1 h 24 min Bit rate : 33 b/s Frame rate : 0.188 FPS Count of elements : 955 Stream size : 21.1 KiB (0%) Language : French Default : No Forced : No Menu 00:00:00.000 : en:Chapter 01 00:07:00.917 : en:Chapter 02 00:11:47.750 : en:Chapter 03 00:16:30.167 : en:Chapter 04 00:20:58.125 : en:Chapter 05 00:25:07.250 : en:Chapter 06 00:29:07.875 : en:Chapter 07 00:33:03.708 : en:Chapter 08 00:38:53.625 : en:Chapter 09 00:46:13.708 : en:Chapter 10 00:51:25.583 : en:Chapter 11 00:57:23.625 : en:Chapter 12 01:02:43.375 : en:Chapter 13 01:07:09.250 : en:Chapter 14 01:15:41.417 : en:Chapter 15 01:24:55.750 : en:Chapter 16
Релиз: Присоединяйся к: Кликай на баннеры.

Всего файлов в раздаче: 1 
How.to.Have.Sex.2023.BDRip.x264.seleZen.mkv2.16 GB

Похожие раздачи по запросу - Как
2024-02-12 magnet Как заниматься сексом / How to Have Sex (2023) HDRip от ExKinoRay | D 748.88 MB ↑ 0 ↓ 0
2024-02-11 magnet Как заниматься сексом / How to Have Sex (2023) BDRip 1080p от селезень | D 1К8.24 GB ↑ 0 ↓ 0
2024-02-11 magnet Как заниматься сексом / How to Have Sex (2023) BDRip 720p от DoMiNo & селезень | D 4.38 GB ↑ 0 ↓ 0
2024-02-11 magnet Как заниматься сексом / How to Have Sex (2023) BDRip-AVC от New-Team | D 1К1.46 GB ↑ 0 ↓ 0
2024-02-11 magnet Как заниматься сексом / How to Have Sex (2023) BDRip от MegaPeer | D 1.46 GB ↑ 0 ↓ 0
2024-02-08 magnet Владимир Малов - Техника. Как это работает. Детская энциклопедия (2017) PDF 38.37 MB ↑ 0 ↓ 0
2024-02-08 magnet Как друзья Захара женили [S01] (2023) WEBRip-AVC от Generalfilm | КПК 2.01 GB ↑ 0 ↓ 0

Комментарии


Зарегистрируйтесь чтобы добавить комментарий
Торрент клиент
byTorrent - программа для загрузки торрент-файлов.

Скачать byTorrent.exe (1,5 МБ)

Скачать byTorrent.zip (0,6 МБ)

Поддержи torrent.by
российских рублей
(300 российских рублей это 4$)

Обратная связь rss

End game ©