↑↓torrent.by
Поиск
Логин:  Регистрация
Пароль:

Трудный ребенок / Problem Child (1990) HDRip-AVC от ExKinoRay | P

download Скачать торрент-файл   magnet Магнитная ссылка Размер: 745.61 MB Добавлен: 2024-02-11 17:00
Пиры будут получены из сети DHT
Последний сидер был замечен 2024-02-27 18:27
Информация о фильме Название: Трудный ребенок Оригинальное название: Problem Child Год выхода: 1990 Жанр: Комедия, семейный Режиссер: Дэннис Дуган В ролях: Джон Риттер, Джек Уорден, Майкл Оливер, Гилберт Готтфрид, Эми Ясбек, Майкл Ричардс, Питер Юрасик, Шарлотт Акин, Джордан Бертон, Эли Камминз, Мэгги Доусон, Деннис Дуган О фильме : Бен Хили и его жена Фло, стремящаяся пробиться в высшее общество, усыновляют Джуниора, прелестное и забавное семилетнее существо. Однако вскоре они убеждаются, что их приемный сын — маленькое чудовище, которое ухитряется превратить отдых в кемпинге, праздник по случаю дня рождения и даже бейсбольный матч в подлинный кошмар. Хотя и очень смешной. Но может быть, Джуниор — на самом деле ангелочек, пытающийся таким способом привлечь к себе внимание? Ищите ответ в этой развеселой картине, сатирически изображающей современную семейную жизнь. Страна: США Студия: Imagine Entertainment, Universal Pictures Продолжительность: 01:20:47 Перевод: Профессиональный (многоголосый, закадровый) - "Пифагор" Файл Формат: MKV Качество: HDRip-AVC Видео: MPEG-4 AVC, 784x428, ~ 1214 Кбит/с Аудио: AAC-HE, 2 ch, ~ 76 Кбит/с Субтитры: Русские, английские
[+] MIОбщее Уникальный идентификатор : 246476792280623306534500083162984608708 (0xB96DB4179767598B89009DD68CB1F3C4) Полное имя : D:MOVIESProblem Child.1990.ExKinoRay.mkv Формат : Matroska Версия формата : Version 4 / Version 2 Размер файла : 746 Мбайт Продолжительность : 1 ч. 20 м. Общий поток : 1290 Кбит/сек Дата кодирования : UTC 2018-07-07 05:09:57 Программа кодирования : mkvmerge v15.0.0 ('Duel with the Devil') 64-bit Библиотека кодирования : libebml v1.3.5 + libmatroska v1.4.5 Видео Идентификатор : 1 Формат : AVC Формат/Информация : Advanced Video Codec Профиль формата : High@L4.1 Параметр CABAC формата : Да Параметр RefFrames формата : 10 кадров Идентификатор кодека : V_MPEG4/ISO/AVC Продолжительность : 1 ч. 20 м. Битрейт : 1214 Кбит/сек Ширина : 784 пикселя Высота : 428 пикселей Соотношение сторон : 1,85:1 Режим частоты кадров : Постоянный Частота кадров : 23,976 (24000/1001) кадра/сек Цветовое пространство : YUV Субдискретизация насыщенности : 4:2:0 Битовая глубина : 8 бит Тип развёртки : Прогрессивная Бит/(Пиксели*Кадры) : 0.151 Размер потока : 700 Мбайт (94%) Библиотека кодирования : x264 core 152 r2851 ba24899 Настройки программы : cabac=1 / ref=10 / deblock=1:-3:-3 / analyse=0x3:0x133 / me=umh / subme=11 / psy=1 / psy_rd=1.00:0.15 / mixed_ref=1 / me_range=32 / chroma_me=1 / trellis=2 / 8x8dct=1 / cqm=0 / deadzone=21,11 / fast_pskip=0 / chroma_qp_offset=-3 / threads=6 / lookahead_threads=1 / sliced_threads=0 / nr=0 / decimate=0 / interlaced=0 / bluray_compat=0 / constrained_intra=0 / bframes=10 / b_pyramid=2 / b_adapt=2 / b_bias=0 / direct=3 / weightb=1 / open_gop=0 / weightp=2 / keyint=240 / keyint_min=23 / scenecut=40 / intra_refresh=0 / rc_lookahead=40 / rc=2pass / mbtree=0 / bitrate=1214 / ratetol=1.0 / qcomp=0.60 / qpmin=0 / qpmax=69 / qpstep=4 / cplxblur=20.0 / qblur=0.5 / vbv_maxrate=50000 / vbv_bufsize=62500 / nal_hrd=none / filler=0 / ip_ratio=1.40 / pb_ratio=1.30 / aq=1:1.00 Default : Да Forced : Нет Аудио Идентификатор : 2 Формат : AAC Формат/Информация : Advanced Audio Codec Профиль формата : HE-AAC / LC Идентификатор кодека : A_AAC Продолжительность : 1 ч. 20 м. Битрейт : 76,0 Кбит/сек Каналы : 2 канала Расположение каналов : Front: L R Частота : 48,0 КГц / 24,0 КГц Частота кадров : 23,438 кадра/сек (1024 SPF) Метод сжатия : С потерями Задержка видео : 31 мс. Размер потока : 43,9 Мбайт (6%) Default : Да Forced : Нет Текст #1 Идентификатор : 3 Формат : UTF-8 Идентификатор кодека : S_TEXT/UTF8 Идентификатор кодека/Информация : UTF-8 Plain Text Продолжительность : 1 ч. 15 м. Битрейт : 104 бит/сек ElementCount : 646 Размер потока : 57,8 Кбайт (0%) Заголовок : Full Язык : Russian Default : Нет Forced : Нет Текст #2 Идентификатор : 4 Формат : UTF-8 Идентификатор кодека : S_TEXT/UTF8 Идентификатор кодека/Информация : UTF-8 Plain Text Продолжительность : 1 ч. 19 м. Битрейт : 68 бит/сек ElementCount : 944 Размер потока : 40,0 Кбайт (0%) Заголовок : Full Язык : English Default : Нет Forced : Нет Меню 00:00:00.000 : en:Chapter 01 00:05:54.979 : en:Chapter 02 00:12:32.835 : en:Chapter 03 00:20:39.655 : en:Chapter 04 00:27:01.244 : en:Chapter 05 00:33:52.447 : en:Chapter 06 00:39:30.868 : en:Chapter 07 00:47:44.069 : en:Chapter 08 00:54:28.056 : en:Chapter 09 01:02:10.017 : en:Chapter 10 01:06:17.723 : en:Chapter 11 01:12:35.017 : en:Chapter 12
[+] Скриншоты
Релиз от:

Всего файлов в раздаче: 1 
Problem Child.1990.ExKinoRay.mkv745.61 MB

Похожие раздачи по запросу - Трудный
2024-02-11 magnet Трудный ребенок 2 / Problem Child 2 (1991) BDRip | D 1.47 GB ↑ 0 ↓ 0
2024-02-11 magnet Трудный ребенок / Problem Child (1990) BDRip | D 1.48 GB ↑ 0 ↓ 0

Комментарии


Зарегистрируйтесь чтобы добавить комментарий
Торрент клиент
byTorrent - программа для загрузки торрент-файлов.

Скачать byTorrent.exe (1,5 МБ)

Скачать byTorrent.zip (0,6 МБ)

Поддержи torrent.by
российских рублей
(300 российских рублей это 4$)

Обратная связь rss

End game ©