↑↓torrent.by
Поиск
Логин:  Регистрация
Пароль:

Что скрывает вода / What Lies Below (2020) BDRip 720p от селезень | iTunes

download Скачать торрент-файл   magnet Магнитная ссылка Размер: 4.04 GB Добавлен: 2024-02-11 17:00
Пиры будут получены из сети DHT
Последний сидер был замечен 2024-02-11 22:56
Информация о фильме Название: Что скрывает вода Оригинальное название: What Lies Below Год выхода: 2020 Жанр: Триллер, ужасы Режиссер: Брэйден Р. Дуэммлер В ролях: Эма Хорват, Мена Сувари, Трей Такер, Хаскири Веласкес, Олэн Монтгомери, Трой Ивата, Дэнни Корбо, ЭйприлЭнн Дэйс О фильме: Мать-одиночка встречает 16-летнюю дочь Либи после летнего лагеря, и обе отправляются в лесной дом у озера, где девушку ждёт сюрприз: мама встречается с мужчиной и собирается за него замуж. Потенциальный отчим — высокий красавец, да ещё и учёный — сначала нравится любознательной Либи, и даже очень, но вскоре девушка замечает за ним странности. Страна: США Студия: DRF Productions Продолжительность: 01:27:59 Перевод: Дублированный | iTunes Качество: BDRip 720p Видео: MPEG-4 AVC, 1280x692, 5548 Kbit/s, 23.976 fps Аудио #01: 48 kHz, AC3, 5.1, 384 Kbps | iTunes | RUS | Аудио #02: 48 kHz, AC3, 5.1, 640 Kbps | Оригинал | ENG | Субтитры: Русские (full, SDH), английские
[+] Скриншоты:
[+] MIGeneral Unique ID : 38640704106616766052779848245396238405 (0x1D11EDCD1E678C6D260B54FA889DF045) Complete name : E:VideoWhat.Lies.Below.2020.BDRip.720p.seleZen.mkv Format : Matroska Format version : Version 4 File size : 4.04 GiB Duration : 1 h 27 min Overall bit rate : 6 569 kb/s Movie name : What Lies Below 2020 from seleZen Encoded date : UTC 2021-10-08 12:15:20 Writing application : mkvmerge v59.0.0 ('Shining Star') 64-bit Writing library : libebml v1.4.2 + libmatroska v1.6.4 Video ID : 1 Format : AVC Format/Info : Advanced Video Codec Format profile : High@L4.1 Format settings : CABAC / 9 Ref Frames Format settings, CABAC : Yes Format settings, Reference frames : 9 frames Codec ID : V_MPEG4/ISO/AVC Duration : 1 h 27 min Bit rate : 5 548 kb/s Width : 1 280 pixels Height : 692 pixels Display aspect ratio : 1.85:1 Frame rate mode : Constant Frame rate : 23.976 (24000/1001) FPS Color space : YUV Chroma subsampling : 4:2:0 Bit depth : 8 bits Scan type : Progressive Bits/(Pixel*Frame) : 0.261 Stream size : 3.41 GiB (84%) Writing library : x264 core 146 r2538 121396c Encoding settings : cabac=1 / ref=9 / deblock=1:-3:-3 / analyse=0x3:0x133 / me=umh / subme=10 / psy=1 / psy_rd=1.04:0.03 / mixed_ref=1 / me_range=32 / chroma_me=1 / trellis=2 / 8x8dct=1 / cqm=0 / deadzone=21,11 / fast_pskip=0 / chroma_qp_offset=-3 / threads=36 / lookahead_threads=5 / sliced_threads=0 / nr=0 / decimate=0 / interlaced=0 / bluray_compat=0 / constrained_intra=0 / bframes=9 / b_pyramid=2 / b_adapt=2 / b_bias=0 / direct=3 / weightb=1 / open_gop=0 / weightp=2 / keyint=240 / keyint_min=23 / scenecut=40 / intra_refresh=0 / rc_lookahead=50 / rc=2pass / mbtree=0 / bitrate=5548 / ratetol=1.0 / qcomp=0.60 / qpmin=0 / qpmax=51 / qpstep=4 / cplxblur=20.0 / qblur=0.5 / vbv_maxrate=50000 / vbv_bufsize=62500 / nal_hrd=none / filler=0 / ip_ratio=1.40 / pb_ratio=1.30 / aq=3:0.80 Language : English Default : Yes Forced : No Audio #1 ID : 2 Format : AC-3 Format/Info : Audio Coding 3 Commercial name : Dolby Digital Codec ID : A_AC3 Duration : 1 h 27 min Bit rate mode : Constant Bit rate : 384 kb/s Channel(s) : 6 channels Channel layout : L R C LFE Ls Rs Sampling rate : 48.0 kHz Frame rate : 31.250 FPS (1536 SPF) Compression mode : Lossy Stream size : 242 MiB (6%) Title : iTunes Language : Russian Service kind : Complete Main Default : Yes Forced : Yes Audio #2 ID : 3 Format : AC-3 Format/Info : Audio Coding 3 Commercial name : Dolby Digital Codec ID : A_AC3 Duration : 1 h 27 min Bit rate mode : Constant Bit rate : 640 kb/s Channel(s) : 6 channels Channel layout : L R C LFE Ls Rs Sampling rate : 48.0 kHz Frame rate : 31.250 FPS (1536 SPF) Compression mode : Lossy Stream size : 403 MiB (10%) Title : Original Language : English Service kind : Complete Main Default : Yes Forced : No Text #1 ID : 4 Format : UTF-8 Codec ID : S_TEXT/UTF8 Codec ID/Info : UTF-8 Plain Text Duration : 1 h 21 min Bit rate : 47 b/s Count of elements : 793 Stream size : 28.6 KiB (0%) Title : Full Language : Russian Default : No Forced : No Text #2 ID : 5 Format : UTF-8 Codec ID : S_TEXT/UTF8 Codec ID/Info : UTF-8 Plain Text Duration : 1 h 24 min Bit rate : 58 b/s Count of elements : 1009 Stream size : 36.0 KiB (0%) Title : SDH Language : Russian Default : No Forced : No Text #3 ID : 6 Format : UTF-8 Codec ID : S_TEXT/UTF8 Codec ID/Info : UTF-8 Plain Text Duration : 1 h 27 min Bit rate : 42 b/s Count of elements : 1183 Stream size : 27.4 KiB (0%) Title : SDH Language : English Default : No Forced : No Menu 00:00:00.000 : Chapter 1 00:09:29.152 : Chapter 2 00:17:21.082 : Chapter 3 00:24:54.910 : Chapter 4 00:35:04.728 : Chapter 5 00:41:06.422 : Chapter 6 00:49:11.407 : Chapter 7 00:57:51.718 : Chapter 8 01:06:16.181 : Chapter 9 01:13:46.422 : Chapter 10 01:20:37.499 : Chapter 11 01:24:38.824 : Chapter 12
Релиз: Присоединяйся к:

Всего файлов в раздаче: 1 
What.Lies.Below.2020.BDRip.720p.seleZen.mkv4.04 GB

Похожие раздачи по запросу - Что
2024-02-14 magnet О чём не скажут школьницы / Что скрывают школьницы / Was Schulmädchen verschweigen / Secrets of Sweet Sixteen (1973) HDRip | А 700.93 MB ↑ 0 ↓ 0
2024-02-12 magnet Что скрывает вода / What Lies Below (2020) HDRip-AVC | КПК | D 400.32 MB ↑ 0 ↓ 0
2024-02-11 magnet Что скрывает вода / What Lies Below (2020) BDRip 1080p от селезень | iTunes 2К7.31 GB ↑ 0 ↓ 0
2024-02-11 magnet Что нашел, то мое / Finders Keepers [S01] (2024) HDTV 1080p | L | ColdFilm 10.93 GB ↑ 0 ↓ 0
2024-02-08 magnet Новый горячий секс-доклад — То, что мужья считают невозможным / Der neue heiße Sex-Report - Was Männer nicht für möglich (1971) DVDRip | L1 745.43 MB ↑ 0 ↓ 0
2024-02-05 magnet Я всегда знал, что вы сделали прошлым летом / I'll Always Know What You Did Last Summer (2006) BDRemux 1080p от селезень | P 24.21 GB ↑ 0 ↓ 0
2024-02-05 magnet Что, если...? / What If...? [02x01-02 из 09] (2023) WEB-DLRip 1080p | D | Локализованная версия | Flarrow Films 2.79 GB ↑ 0 ↓ 0

Комментарии


Зарегистрируйтесь чтобы добавить комментарий
Торрент клиент
byTorrent - программа для загрузки торрент-файлов.

Скачать byTorrent.exe (1,5 МБ)

Скачать byTorrent.zip (0,6 МБ)

Поддержи torrent.by
российских рублей
(300 российских рублей это 4$)

Обратная связь rss

End game ©