↑↓torrent.by
Поиск
Логин:  Регистрация
Пароль:

Укус / Bite (2022) WEB-DL 1080p | P

download Скачать торрент-файл   magnet Магнитная ссылка Размер: 3.79 GB Добавлен: 2024-02-11 17:00
Пиры будут получены из сети DHT
Последний сидер был замечен 2024-02-11 21:30
Информация о фильме Название: Укус Оригинальное название: Bite Год выхода: 2022 Жанр: ужасы, драма Режиссер: Джеймс Оуэн В ролях: Шиан Дэнован, Нанси Нсуе, Аннабель Лэнйон, Энтони Айлотт, Стюарт Сешнс, Синди Скотт Джонстон, Джек Лой, Пол Бэйли, Джон Кэмплинг, Роберт Дэвидсон, Джо Иган, Дин Финлан, Кевин Грит, Мэтт Хорн, Джимми Ви О фильме: Две молодые мошенницы, Нина и Яз, ввязываются в очень опасную аферу, связанную с дерзким ограблением банды наркоторговцев. Однако затея проваливается, и девушки в спешке сбегают от преследователей. По дороге они встречают безобидную гостеприимную старушку Берилл из пригорода, и думают, что она станет легкой мишенью для ограбления. Вскоре Нина и Яз понимают, что, помимо Берилл, в доме живет и ее родственник с явными психическими отклонениями. С каждой минутой, проведенной в этом жилище, девушки все острее осознают, что Берилл совсем не тот божий одуванчик, за которую пытается себя выдать, а вскоре начинается настоящая кровавая бойня. Выпущено: Великобритания / Arthrofilm Продолжительность: 01:39:23 Перевод: Многоголосый профессиональный (Официальный) Файл Формат: MKV Качество: WEB-DL 1080p Видео: AVC/H.264, 1920x856, ~5000 Kbps Аудио 1: E-AC3, 2 ch, 256 Kbps - Русский (MVO) Аудио 2: E-AC3, 2 ch, 256 Kbps - Английский Субтитры: Нет Релиз от: karfagen1975
[+] M/IGeneral Unique ID : 167214526999691491569180877701148836775 (0x7DCC58B2294997C6E6D8435309E803A7) Complete name : Bite.2022.WEB-DL.1080p.mkv Format : Matroska Format version : Version 4 File size : 3.79 GiB Duration : 1 h 39 min Overall bit rate : 5 461 kb/s Frame rate : 25.000 FPS Encoded date : 2024-02-11 07:46:10 UTC Writing application : mkvmerge v75.0.0 ('Goliath') 64-bit Writing library : libebml v1.4.4 + libmatroska v1.7.1 Video ID : 1 Format : AVC Format/Info : Advanced Video Codec Format profile : High@L4 Format settings : CABAC / 3 Ref Frames Format settings, CABAC : Yes Format settings, Reference frames : 3 frames Codec ID : V_MPEG4/ISO/AVC Duration : 1 h 39 min Bit rate : 5 000 kb/s Width : 1 920 pixels Height : 856 pixels Display aspect ratio : 2.25:1 Frame rate mode : Constant Frame rate : 25.000 FPS Color space : YUV Chroma subsampling : 4:2:0 Bit depth : 8 bits Scan type : Progressive Bits/(Pixel*Frame) : 0.122 Stream size : 3.43 GiB (91%) Title : Укус (2022) WEB-DL 1080p Writing library : x264 core 164 r3095 baee400 Encoding settings : cabac=1 / ref=4 / deblock=1:-1:-1 / analyse=0x3:0x133 / me=umh / subme=9 / psy=1 / psy_rd=0.40:1.00 / mixed_ref=1 / me_range=24 / chroma_me=1 / trellis=0 / 8x8dct=1 / cqm=0 / deadzone=21,11 / fast_pskip=1 / chroma_qp_offset=-2 / threads=3 / lookahead_threads=1 / sliced_threads=0 / nr=0 / decimate=1 / interlaced=0 / bluray_compat=0 / stitchable=1 / constrained_intra=0 / bframes=8 / b_pyramid=1 / b_adapt=0 / b_bias=0 / direct=3 / weightb=1 / open_gop=0 / weightp=2 / keyint=75 / keyint_min=38 / scenecut=0 / intra_refresh=0 / rc_lookahead=40 / rc=2pass / mbtree=1 / bitrate=5000 / ratetol=1.0 / qcomp=0.80 / qpmin=1 / qpmax=69 / qpstep=4 / cplxblur=20.0 / qblur=0.5 / vbv_maxrate=7500 / vbv_bufsize=10000 / nal_hrd=none / filler=0 / ip_ratio=1.40 / aq=1:1.00 Language : English Default : Yes Forced : No Audio #1 ID : 2 Format : E-AC-3 Format/Info : Enhanced AC-3 Commercial name : Dolby Digital Plus Codec ID : A_EAC3 Duration : 1 h 39 min Bit rate mode : Constant Bit rate : 256 kb/s Channel(s) : 2 channels Channel layout : L R Sampling rate : 48.0 kHz Frame rate : 31.250 FPS (1536 SPF) Compression mode : Lossy Stream size : 182 MiB (5%) Title : MVO (Oficial) Language : Russian Service kind : Complete Main Default : No Forced : No Audio #2 ID : 3 Format : E-AC-3 Format/Info : Enhanced AC-3 Commercial name : Dolby Digital Plus Codec ID : A_EAC3 Duration : 1 h 39 min Bit rate mode : Constant Bit rate : 256 kb/s Channel(s) : 2 channels Channel layout : L R Sampling rate : 48.0 kHz Frame rate : 31.250 FPS (1536 SPF) Compression mode : Lossy Stream size : 182 MiB (5%) Title : Original Language : English Service kind : Complete Main Default : No Forced : No
[+] Скриншоты

Всего файлов в раздаче: 1 
Bite.2022.WEB-DL.1080p.mkv3.79 GB

Похожие раздачи по запросу - Укус
2024-01-23 magnet Укус / Bite (2022) WEB-DL 720p от ELEKTRI4KA | P 1К2.56 GB ↑ 0 ↓ 0
2024-01-23 magnet Укус / Bite (2022) WEB-DLRip от ELEKTRI4KA | P 1.46 GB ↑ 0 ↓ 0

Комментарии


Зарегистрируйтесь чтобы добавить комментарий
Торрент клиент
byTorrent - программа для загрузки торрент-файлов.

Скачать byTorrent.exe (1,5 МБ)

Скачать byTorrent.zip (0,6 МБ)

Поддержи torrent.by
российских рублей
(300 российских рублей это 4$)

Обратная связь rss

End game ©