↑↓torrent.by
Поиск
Логин:  Регистрация
Пароль:

Хало / Halo [S01] (2022) WEB-DLRip-AVC от DoMiNo | LostFilm

download Скачать торрент-файл   magnet Магнитная ссылка Размер: 6.43 GB Добавлен: 2024-02-11 17:00
Пиры будут получены из сети DHT
Последний сидер был замечен вчера в 22:56
Информация о фильме Название: Хало Оригинальное название: Halo Год выхода: 2022 Жанр: фантастика, боевик Режиссер: Отто Батхёрст, Джонатан Либесман, Роэль Рейн В ролях: Пабло Шрайбер, Наташа МакЭлхоун, Yerin Ha, Боким Вудбайн, Джен Тейлор, Шабана Азми, Оливия Грант, Чарли Мерфи, Кейт Кеннеди, Бентли Калу О фильме: «Halo» — это экранизация одноименной игровой франшизы в жанре боевой фантастики, разработанная сценаристами Стивеном Кэйном («Последний корабль») и Кайлом Килленом («Пробуждение») для сервиса Paramount+. Проект стартовал еще в 2013 году, когда инициатором и одним из продюсеров адаптации выступил Стивен Спилберг. Как и в игре, сериал повествует о войне землян с Ковенантом, теократическим союзом инопланетных цивилизаций. Таймлайн шоу несколько отличается от хронологии игр, однако сюжет также сконцентрирован на герое по имени Мастер Чиф. Главные роли в сериале исполнили Пабло Шрайбер («Американские боги»), Наташа МакЭлхоун («Калифорникейшн»), Джен Тейлор, Букем Вудбайн («Фарго»). На протяжении нескольких лет силы Космического Командования Объединенных Наций ведут войну с Империей Ковенанта, постепенно сдавая позиции. Однако земные ученые разработали проект «Спартанец-II» — программу создания суперсолдат посредством биологических и механических улучшений, на которую Командование возлагает большие надежды. Группа спартанцев во главе с Мастером Чифом (Пабло Шрайбер) прибывает на одну из планет, чтобы зачистить местную колонию от инопланетян Ковенанта, однако во время операции гибнет практически все население колонии, кроме девочки-подростка Кван А (Ерин Ха). Мастеру Чифу поручено доставить ее к Командованию, чтобы та могла поделиться сведениями об увиденном, однако во время полета приказ сменяется на убийство Кван. Впервые в жизни беспрекословно подчиняющийся солдат ослушается и скроется на корабле, на котором находится загадочная инопланетная технология, с помощью которой можно было бы переломить ход войны… Страна: США Продолжительность: ~00:55:00 серия Перевод: Профессиональный (многоголосый, закадровый) LostFilm Субтитры: Russian (Full), English (Full, SDH) Файл Формат: Matroska Качество: WEB-DLRip-AVC Видео: 1024x512 at 24.000 fps, x264@L4.1, ~1400-2300 kbps Аудио: AC3, 2 ch, ~192 kbps - | Русский | Формат субтитров: softsub (SRT) ► Без Рекламы! ***Релиз от: -=DoMiNo=-
[+] M/Ix264 : frame I:672 Avg QP:15.55 size: 48696 x264 : frame P:16776 Avg QP:17.61 size: 17852 x264 : frame B:59765 Avg QP:20.00 size: 4637 General Unique ID : 234985074226059222358584707379105793788 (0xB0C87AA5E0DA57D734DF616FFCBE86FC) Complete name : E:Halo.S01.2022.WEB-DLRip.x264.LFHalo.S01E02.mkv Format : Matroska Format version : Version 4 File size : 656 MiB Duration : 53 min 37 s Overall bit rate : 1 710 kb/s Movie name : Halo - S01E02 - Unbound Encoded date : UTC 2022-04-30 20:49:46 Writing application : mkvmerge v63.0.0 ('Everything') 64-bit Writing library : libebml v1.4.2 + libmatroska v1.6.4 Cover : Yes Attachments : cover.png / cover 2.jpg IMDB : tt2934286 TMDB : tv/52814 TVDB : 366524 Video ID : 1 Format : AVC Format/Info : Advanced Video Codec Format profile : High@L4.1 Format settings : CABAC / 10 Ref Frames Format settings, CABAC : Yes Format settings, Reference : 10 frames Codec ID : V_MPEG4/ISO/AVC Duration : 53 min 37 s Bit rate : 1 515 kb/s Width : 1 024 pixels Height : 512 pixels Display aspect ratio : 2.000 Frame rate mode : Constant Frame rate : 24.000 FPS Color space : YUV Chroma subsampling : 4:2:0 Bit depth : 8 bits Scan type : Progressive Bits/(Pixel*Frame) : 0.120 Stream size : 581 MiB (89%) Title : -=DoMiNo=- Writing library : x264 core 164 r3094 bfc87b7 Encoding settings : cabac=1 / ref=10 / deblock=1:-2:-2 / analyse=0x3:0x133 / me=umh / subme=10 / psy=1 / psy_rd=1.02:0.20 / mixed_ref=1 / me_range=32 / chroma_me=1 / trellis=2 / 8x8dct=1 / cqm=0 / deadzone=21,11 / fast_pskip=0 / chroma_qp_offset=-3 / threads=16 / lookahead_threads=4 / sliced_threads=0 / nr=0 / decimate=1 / interlaced=0 / bluray_compat=0 / constrained_intra=0 / bframes=10 / b_pyramid=2 / b_adapt=2 / b_bias=0 / direct=1 / weightb=1 / open_gop=0 / weightp=2 / keyint=250 / keyint_min=24 / scenecut=40 / intra_refresh=0 / rc_lookahead=60 / rc=crf / mbtree=0 / crf=19.0 / qcomp=0.65 / qpmin=0 / qpmax=69 / qpstep=4 / vbv_maxrate=50000 / vbv_bufsize=62500 / crf_max=0.0 / nal_hrd=none / filler=0 / ip_ratio=1.35 / pb_ratio=1.25 / aq=2:1.00 Language : English Default : Yes Forced : No Color range : Limited Color primaries : BT.709 Transfer characteristics : BT.709 Matrix coefficients : BT.709 Audio ID : 2 Format : AC-3 Format/Info : Audio Coding 3 Commercial name : Dolby Digital Codec ID : A_AC3 Duration : 53 min 37 s Bit rate mode : Constant Bit rate : 192 kb/s Channel(s) : 2 channels Channel layout : L R Sampling rate : 48.0 kHz Frame rate : 31.250 FPS (1536 SPF) Compression mode : Lossy Stream size : 73.6 MiB (11%) Title : LF Language : Russian Service kind : Complete Main Default : Yes Forced : No Text #1 ID : 3 Format : UTF-8 Codec ID : S_TEXT/UTF8 Codec ID/Info : UTF-8 Plain Text Duration : 51 min 38 s Bit rate : 80 b/s Count of elements : 635 Stream size : 30.3 KiB (0%) Title : Rus Language : Russian Default : No Forced : No Text #2 ID : 4 Format : UTF-8 Codec ID : S_TEXT/UTF8 Codec ID/Info : UTF-8 Plain Text Duration : 51 min 24 s Bit rate : 49 b/s Count of elements : 670 Stream size : 18.6 KiB (0%) Title : Eng Language : English Default : No Forced : No Text #3 ID : 5 Format : UTF-8 Codec ID : S_TEXT/UTF8 Codec ID/Info : UTF-8 Plain Text Duration : 51 min 39 s Bit rate : 54 b/s Count of elements : 738 Stream size : 20.5 KiB (0%) Title : SDH Language : English Default : No Forced : No Menu 00:51:33.000 : en:Credits
[+] Скриншоты

Всего файлов в раздаче: 9 
Halo.S01E01.mkv1003.37 MB
Halo.S01E02.mkv655.79 MB
Halo.S01E03.mkv636.21 MB
Halo.S01E04.mkv757.09 MB
Halo.S01E05.mkv719.03 MB
Halo.S01E06.mkv541.95 MB
Halo.S01E07.mkv792.68 MB
Halo.S01E08.mkv703.07 MB
Halo.S01E09.mkv776.77 MB

Похожие раздачи по запросу - Хало
Сегодня magnet Хало / Halo [02x01-04 из 08] (2024) WEB-DL-HEVC 2160p | 4K | HDR | Dolby Vision | AlexFilm 21.87 GB ↑ 0 ↓ 0
2024-02-24 magnet Хало / Halo [02x01-04 из 08] (2024) WEB-DLRip-AVC от DoMiNo & селезень | LostFilm 2.32 GB ↑ 0 ↓ 0
2024-02-24 magnet Хало / Halo [02x01-04 из 08] (2024) WEB-DL 1080p от Jaskier | P 8.63 GB ↑ 0 ↓ 0
2024-02-24 magnet Хало / Halo [02x01-04 из 08] (2024) WEB-DL 1080p | LostFilm, Jaskier, NewComers, ColdFilm 10.64 GB ↑ 0 ↓ 0
2024-02-24 magnet Хало / Halo [02x01-04 из 08] (2024) WEB-DL 1080p от NewComers | P 9.18 GB ↑ 0 ↓ 0
2024-02-24 magnet Хало / Halo [02x01-04 из 08] (2024) WEB-DL-HEVC 2160p от NewComers | 4K | HDR | P 21.27 GB ↑ 0 ↓ 0
2024-02-14 magnet Хало / Halo [02x01-02 из 08] (2024) WEB-DL 1080p | Jaskier 4.29 GB ↑ 0 ↓ 0

Комментарии


Зарегистрируйтесь чтобы добавить комментарий
Торрент клиент
byTorrent - программа для загрузки торрент-файлов.

Скачать byTorrent.exe (1,5 МБ)

Скачать byTorrent.zip (0,6 МБ)

Поддержи torrent.by
российских рублей
(300 российских рублей это 4$)

Обратная связь rss

End game ©