↑↓torrent.by
Поиск
Логин:  Регистрация
Пароль:

Голодные игры: Баллада о змеях и певчих птицах / The Hunger Games: The Ballad of Songbirds & Snakes (2023) BDRip-AVC от ExKinoRay | D

download Скачать торрент-файл   magnet Магнитная ссылка Размер: 2.89 GB Добавлен: 2024-02-12 05:00
Пиры будут получены из сети DHT
Последний сидер был замечен сегодня в 00:11
Название: Голодные игры: Баллада о змеях и певчих птицах Оригинальное название: The Hunger Games: The Ballad of Songbirds & Snakes Год выхода: 2023 Жанр: Фантастика, боевик, триллер, драма, приключения, военный Режиссер: Фрэнсис Лоуренс В ролях: Том Блайт, Рэйчел Зеглер, Питер Динклэйдж, Хантер Шафер, Джош Андрес Ривера, Джейсон Шварцман, Виола Дэвис, Финола Флэнаган, Берн Горман, Эшли Ляо О фильме: До того как стать деспотичным президентом Панэма, молодой Кориолан Сноу был последней надеждой своего увядающего рода — некогда великой династии, впавшей в немилость послевоенного Капитолия. Накануне десятых ежегодных Голодных игр Сноу назначают наставником Люси Грей Бэйрд — трибута дистрикта 12. Постепенно девушка привлекает все больше внимание Панэма, становясь фавориткой грядущего соревнования. Готовый на всё, чтобы вернуть своей семье былое величие, Сноу решает обратить ситуацию с Люси в свою пользу. Начинается гонка со временем, которая покажет, кто певчая птица, а кто — змея. Страна: США, Канада Студия: Color Force, Good Universe, Lions Gate Films Inc. Продолжительность: 02:37:10 Перевод: Профессиональный (полное дублирование) | Мосфильм-Мастер Формат: MKV Качество: BDRip-AVC Видео: MPEG-4 AVC, 720x302, 23.976 fps, 1739 Kbps, 0.334 bit/pixel Аудио 1: 48 kHz, AC3, 3/2 (L,C,R,l,r) + LFE ch, ~448.00 kbps avg | Dub | Rus Аудио 2: 48 kHz, AC3, 3/2 (L,C,R,l,r) + LFE ch, ~448.00 kbps avg | Original | Eng Субтитры: Русские (Forced, Full (Наталья Раевская (Enigma))), английские
[+] МИGeneral Unique ID : 219583173081144419129371404623771803736 (0xA5322E4B026E89B580D3009F8D1F2058) Complete name : D:Golodniigru.Baladaozmeahiptichke2023.BDRip.AVC.Enigma.ExKinoRay.mkv Format : Matroska Format version : Version 4 / Version 2 File size : 2.89 GiB Duration : 2 h 37 min Overall bit rate : 2 636 kb/s Movie name : Голодные игры: Баллада о змеях и певчих птицах (2023) from ExKinoRay Encoded date : UTC 2024-02-11 03:58:05 Writing application : mkvmerge v7.6.0 ('Garden of Dreams') 32bit built on Feb 11 2015 00:18:47 Writing library : libebml v1.3.1 + libmatroska v1.4.2 Video ID : 1 Format : AVC Format/Info : Advanced Video Codec Format profile : High@L4.1 Format settings, CABAC : Yes Format settings, ReFrames : 10 frames Codec ID : V_MPEG4/ISO/AVC Duration : 2 h 37 min Bit rate : 1 739 kb/s Width : 720 pixels Height : 302 pixels Display aspect ratio : 2.40:1 Frame rate mode : Constant Frame rate : 23.976 (24000/1001) FPS Color space : YUV Chroma subsampling : 4:2:0 Bit depth : 8 bits Scan type : Progressive Bits/(Pixel*Frame) : 0.334 Stream size : 1.91 GiB (66%) Title : Enigma Writing library : x264 core 164 r3107+58M ae98796 t_mod_New Encoding settings : cabac=1 / ref=10 / deblock=1:-2:-2 / analyse=0x3:0x133 / me=umh / subme=10 / psy=1 / fade_compensate=0.00 / psy_rd=1.00:0.00 / mixed_ref=1 / me_range=32 / chroma_me=1 / trellis=2 / 8x8dct=1 / cqm=0 / deadzone=21,11 / fast_pskip=0 / chroma_qp_offset=-2 / threads=9 / lookahead_threads=2 / sliced_threads=0 / nr=0 / decimate=0 / interlaced=0 / bluray_compat=0 / constrained_intra=0 / fgo=0 / bframes=10 / b_pyramid=2 / b_adapt=2 / b_bias=0 / direct=3 / weightb=1 / open_gop=0 / weightp=2 / keyint=240 / keyint_min=23 / scenecut=40 / intra_refresh=0 / rc=2pass / mbtree=0 / bitrate=1739 / ratetol=1.0 / qcomp=0.60 / qpmin=0:0:0 / qpmax=69:69:69 / qpstep=4 / cplxblur=20.0 / qblur=0.5 / ip_ratio=1.40 / pb_ratio=1.30 / aq=1:1.00 / aq-sensitivity=10.00 / aq-factor=1.00:1.00:1.00 / aq2=0 / aq3=0 Default : Yes Forced : No Audio #1 ID : 2 Format : AC-3 Format/Info : Audio Coding 3 Mode extension : CM (complete main) Format settings, Endianness : Big Codec ID : A_AC3 Duration : 2 h 37 min Bit rate mode : Constant Bit rate : 448 kb/s Channel(s) : 6 channels Channel positions : Front: L C R, Side: L R, LFE Sampling rate : 48.0 kHz Frame rate : 31.250 FPS (1536 spf) Compression mode : Lossy Stream size : 504 MiB (17%) Title : Dub (Мосфильм-Мастер) Language : Russian Default : Yes Forced : No Audio #2 ID : 3 Format : AC-3 Format/Info : Audio Coding 3 Mode extension : CM (complete main) Format settings, Endianness : Big Codec ID : A_AC3 Duration : 2 h 37 min Bit rate mode : Constant Bit rate : 448 kb/s Channel(s) : 6 channels Channel positions : Front: L C R, Side: L R, LFE Sampling rate : 48.0 kHz Frame rate : 31.250 FPS (1536 spf) Compression mode : Lossy Stream size : 504 MiB (17%) Language : English Default : No Forced : No Text #1 ID : 4 Format : UTF-8 Codec ID : S_TEXT/UTF8 Codec ID/Info : UTF-8 Plain Text Duration : 2 h 18 min Bit rate : 11 b/s Count of elements : 202 Stream size : 11.2 KiB (0%) Title : Forced Language : Russian Default : Yes Forced : No Text #2 ID : 5 Format : UTF-8 Codec ID : S_TEXT/UTF8 Codec ID/Info : UTF-8 Plain Text Duration : 2 h 30 min Bit rate : 102 b/s Count of elements : 2334 Stream size : 113 KiB (0%) Title : Full (Enigma) Language : Russian Default : No Forced : No Text #3 ID : 6 Format : UTF-8 Codec ID : S_TEXT/UTF8 Codec ID/Info : UTF-8 Plain Text Duration : 2 h 26 min Bit rate : 61 b/s Count of elements : 2269 Stream size : 65.9 KiB (0%) Title : Full Language : English Default : No Forced : No Menu 00:00:00.000 : en:Chapter 01 00:12:36.505 : en:Chapter 02 00:24:22.586 : en:Chapter 03 00:34:06.002 : en:Chapter 04 00:46:53.936 : en:Chapter 05 00:56:09.741 : en:Chapter 06 01:08:28.437 : en:Chapter 07 01:19:22.424 : en:Chapter 08 01:26:41.112 : en:Chapter 09 01:33:59.508 : en:Chapter 10 01:40:45.706 : en:Chapter 11 01:47:35.657 : en:Chapter 12 01:54:55.680 : en:Chapter 13 02:05:09.543 : en:Chapter 14 02:13:03.392 : en:Chapter 15 02:19:05.795 : en:Chapter 16
Релиз от: Автор релиза:

Всего файлов в раздаче: 1 
Golodniigru.Baladaozmeahiptichke2023.BDRip.AVC.Enigma.ExKinoRay.mkv2.89 GB

Похожие раздачи по запросу - Голодные
2024-02-28 magnet Голодные игры: Коллекция / The Hunger Games: Collection (2012-2023) BDRip-HEVC 1080p от RIPS CLUB | D, P, A 42.26 GB ↑ 0 ↓ 0
2024-02-15 magnet Голодные игры: Баллада о змеях и певчих птицах / The Hunger Games: The Ballad of Songbirds & Snakes (2023) BDRip 2160p | 4K | HDR | Dolby Vision Profile 8 | D, P, A 34.92 GB ↑ 0 ↓ 0
2024-02-12 magnet Голодные игры: Баллада о змеях и певчих птицах / The Hunger Games: The Ballad of Songbirds & Snakes (2023) BDRip 1080p | D, P, A 11.46 GB ↑ 0 ↓ 0
2024-02-09 magnet Голодные игры: Баллада о змеях и певчих птицах / Голодні ігри: Балада про співочих пташок і змій / The Hunger Games: The Ballad of Songbirds & Snakes (2023) BDRemux 1080p | D | UKR 30.12 GB ↑ 0 ↓ 0
2024-02-08 magnet Голодные игры: Баллада о змеях и певчих птицах / The Hunger Games: The Ballad of Songbirds & Snakes (2023) BDRip 1080p от Generalfilm | D 13.54 GB ↑ 0 ↓ 0
2024-02-08 magnet Голодные игры: Баллада о змеях и певчих птицах / The Hunger Games: The Ballad of Songbirds & Snakes (2023) HDRip-AVC от ExKinoRay | D 1.07 GB ↑ 0 ↓ 0
2024-02-07 magnet Голодные игры: Баллада о змеях и певчих птицах / The Hunger Games: The Ballad of Songbirds & Snakes (2023) UHD BDRemux 2160p от селезень | 4K | HDR | Dolby Vision | D 74.27 GB ↑ 0 ↓ 0

Комментарии


Зарегистрируйтесь чтобы добавить комментарий
Торрент клиент
byTorrent - программа для загрузки торрент-файлов.

Скачать byTorrent.exe (1,5 МБ)

Скачать byTorrent.zip (0,6 МБ)

Поддержи torrent.by
российских рублей
(300 российских рублей это 4$)

Обратная связь rss

End game ©