↑↓torrent.by
Поиск
Логин:  Регистрация
Пароль:

Zara Larsson - Venus [24-bit Hi-Res] (2024) FLAC

download Скачать торрент-файл   magnet Магнитная ссылка Размер: 480.14 MB Добавлен: 2024-02-12 05:00
Пиры будут получены из сети DHT
Последний сидер был замечен 2024-02-12 14:52
Название: Venus Исполнитель: Zara Larsson Год: 2024 Жанр: Pop Издатель (лейбл): Summer House - Epic Продолжительность: 00:39:18 Формат/Кодек: FLAC Тип рипа: Tracks Битрейт аудио: Lossless Разрядность: 24 Bit/96 kHz
[+] Трек-лист 01. Can't Tame Her 02. More Than This Was 03. On My Love 04. Ammunition 05. None Of These Guys 06. You Love Who You Love 07. End Of Time 08. Nothing 09. Escape 10. Soundtrack 11. Venus 12. The Healing
[+] DRM foobar2000 1.5.5 / Замер динамического диапазона (DR) 1.1.1 ------------------------------------------------------------------------------- Анализ: Zara Larsson / Venus -------------------------------------------------------------------------------- DR Пики RMS Продолжительность трека -------------------------------------------------------------------------------- DR5 0.00 дБ -8.20 дБ 3:14 02-More Than This Was DR4 -0.23 дБ -7.38 дБ 3:43 03-On My Love DR5 0.00 дБ -8.11 дБ 3:42 04-Ammunition DR6 0.00 дБ -7.18 дБ 2:42 05-None Of These Guys DR5 0.00 дБ -6.13 дБ 3:06 06-You Love Who You Love DR4 0.00 дБ -6.49 дБ 3:30 07-End Of Time DR6 0.00 дБ -8.15 дБ 2:47 08-Nothing DR5 0.00 дБ -7.08 дБ 3:15 09-Escape DR6 0.00 дБ -8.68 дБ 3:23 10-Soundtrack DR4 0.00 дБ -7.11 дБ 3:28 11-Venus DR10 -1.19 дБ -14.91 дБ 3:11 12-The Healing -------------------------------------------------------------------------------- Количество треков: 11 Реальные значения DR: DR6 Частота: 44100 Гц Каналов: 2 Разрядность: 24 Битрейт: 1415 кбит/с Кодек: FLAC ================================================================================ -------------------------------------------------------------------------------- Статистика для: 01-Can't Tame Her Количество сэмплов: 18906230 Продолжительность: 3:17 -------------------------------------------------------------------------------- Левый Правый Пики: -0.27 дБ --- -0.27 дБ Средний RMS: -5.67 дБ --- -6.01 дБ DR канала: 4.11 дБ --- 4.39 дБ -------------------------------------------------------------------------------- Реальные значения DR: DR4 Частота: 96000 Гц Каналов: 2 Разрядность: 24 Битрейт: 3010 кбит/с Кодек: FLAC ================================================================================
Время раздачи: 24/7 (минимум до появления первых 3-5 скачавших, на раздачи не возвращаюсь) Первое правило участника файлообмена: "Скачал сам - дай скачать другому!"

Всего файлов в раздаче: 13 
01. Can't Tame Her.flac70.76 MB
02. More Than This Was.flac35.07 MB
03. On My Love.flac42.59 MB
04. Ammunition.flac41.16 MB
05. None Of These Guys.flac30.82 MB
06. You Love Who You Love.flac37.89 MB
07. End Of Time.flac39.79 MB
08. Nothing.flac33.40 MB
09. Escape.flac37.94 MB
10. Soundtrack.flac37.23 MB
Показать все файлы

Похожие раздачи по запросу - Zara
2024-02-09 magnet Zara Larsson - Venus (2024) FLAC 250.46 MB ↑ 0 ↓ 0
2024-02-09 magnet Zara Larsson - Venus (2024) MP3 90.60 MB ↑ 0 ↓ 0

Комментарии


Зарегистрируйтесь чтобы добавить комментарий
Торрент клиент
byTorrent - программа для загрузки торрент-файлов.

Скачать byTorrent.exe (1,5 МБ)

Скачать byTorrent.zip (0,6 МБ)

Поддержи torrent.by
российских рублей
(300 российских рублей это 4$)

Обратная связь rss

End game ©