↑↓torrent.by
Поиск
Логин:  Регистрация
Пароль:

Kanye West, Ty Dolla $ign - Vultures 1 [24-bit Hi-Res] (2024) FLAC

download Скачать торрент-файл   magnet Магнитная ссылка Размер: 674.41 MB Добавлен: 2024-02-12 05:00
Пиры будут получены из сети DHT
Последний сидер был замечен 2024-02-12 15:57
Название: Vultures 1 Исполнитель: Kanye West, Ty Dolla $ign Год: 2024 Жанр: Hip-Hop, Rap Издатель (лейбл): YZY Продолжительность: 00:55:40 Формат/Кодек: FLAC Тип рипа: Tracks Битрейт аудио: Lossless Разрядность: 24 Bit/44,1-48 kHz
[+] Трек-лист 01. Stars 02. Keys To My Life 03. Paid 04. Talking 05. Back To Me 06. Hoodrat 07. Do It 08. Paperwork 09. Burn 10. Fuk Sumn 11. Vultures 12. Carnival 13. Beg Forgiveness 14. Good (Don't Die) 15. Problematic 16. King
[+] DRM foobar2000 1.5.5 / Замер динамического диапазона (DR) 1.1.1 ------------------------------------------------------------------------------- Статистика для: 11-Vultures Количество сэмплов: 12215122 Продолжительность: 4:37 -------------------------------------------------------------------------------- Левый Правый Пики: -0.10 дБ --- -0.10 дБ Средний RMS: -5.93 дБ --- -6.03 дБ DR канала: 2.71 дБ --- 2.75 дБ -------------------------------------------------------------------------------- Реальные значения DR: DR3 Частота: 44100 Гц Каналов: 2 Разрядность: 24 Битрейт: 1629 кбит/с Кодек: FLAC ================================================================================ -------------------------------------------------------------------------------- Анализ: Kanye West, Ty Dolla $ign / Vultures 1 -------------------------------------------------------------------------------- DR Пики RMS Продолжительность трека -------------------------------------------------------------------------------- DR4 0.00 дБ -6.82 дБ 1:55 01-Stars DR4 0.00 дБ -8.41 дБ 2:54 02-Keys To My Life DR4 -0.10 дБ -5.29 дБ 3:15 03-Paid DR3 -0.01 дБ -5.83 дБ 3:05 04-Talking DR5 -0.10 дБ -5.94 дБ 4:55 05-Back To Me DR4 -0.10 дБ -5.12 дБ 3:43 06-Hoodrat DR4 0.00 дБ -5.95 дБ 3:45 07-Do It DR2 -0.56 дБ -4.86 дБ 2:26 08-Paperwork DR5 -0.10 дБ -5.80 дБ 1:51 09-Burn DR3 0.00 дБ -4.87 дБ 3:30 10-Fuk Sumn DR5 0.00 дБ -6.99 дБ 4:24 12-Carnival DR1 -0.10 дБ -3.67 дБ 6:09 13-Beg Forgiveness DR5 0.00 дБ -6.40 дБ 3:19 14-Good (Don't Die) DR5 0.00 дБ -6.03 дБ 3:15 15-Problematic DR4 -0.10 дБ -6.21 дБ 2:37 16-King -------------------------------------------------------------------------------- Количество треков: 15 Реальные значения DR: DR4 Частота: 48000 Гц Каналов: 2 Разрядность: 24 Битрейт: 1746 кбит/с Кодек: FLAC ================================================================================
Время раздачи: 24/7 (минимум до появления первых 3-5 скачавших, на раздачи не возвращаюсь) Первое правило участника файлообмена: "Скачал сам - дай скачать другому!"

Всего файлов в раздаче: 17 
01. Stars.flac22.08 MB
02. Keys To My Life.flac35.71 MB
03. Paid.flac40.02 MB
04. Talking.flac37.45 MB
05. Back To Me.flac61.41 MB
06. Hoodrat.flac44.91 MB
07. Do It.flac48.05 MB
08. Paperwork.flac28.11 MB
09. Burn.flac22.71 MB
10. Fuk Sumn.flac44.32 MB
Показать все файлы

Комментарии


Зарегистрируйтесь чтобы добавить комментарий
Торрент клиент
byTorrent - программа для загрузки торрент-файлов.

Скачать byTorrent.exe (1,5 МБ)

Скачать byTorrent.zip (0,6 МБ)

Поддержи torrent.by
российских рублей
(300 российских рублей это 4$)

Обратная связь rss

End game ©