↑↓torrent.by
Поиск
Логин:  Регистрация
Пароль:

Гнев материнский / The Good Mother (2023) BDRip 720p от DoMiNo & селезень | D

download Скачать торрент-файл   magnet Магнитная ссылка Размер: 3.11 GB Добавлен: 2024-02-12 05:00
Пиры будут получены из сети DHT
Последний сидер был замечен 2024-02-29 20:13
Информация о фильме Название: Гнев материнский Оригинальное название: The Good Mother Год выпуска: 2023 Жанр: триллер, драма, криминал, детектив Режиссер: Майлз Джорис-Пейрафит В ролях: Оливия Кук, Хилари Суэнк, Джек Рейнор, Хоппер Пенн, Норм Льюис, Карен Элдридж, Дилон, Роберт Лофтус, Кэти Линн Джонсон, Микайла Шефер О фильме: Отчаянная мать и профессиональная журналистка Марисса берётся самостоятельно расследовать дело о жестоком убийстве собственного сына. Пока второй ее сын — полицейский — пытается скрыть детали следствия, девушка погибшего решает вступить в опасное расследование и помочь матери. Вместе они должны докопаться до правды, какой бы страшной она ни была. Выпущено: США / SSS Entertainment, Artemis, Priority Pictures Продолжительность: 01:30:23 Перевод: Дублированный | Велес Субтитры: Русские (Forced), английские Файл Формат: Matroska Качество: BDRip 720p Видео: 1280x534 at 23.976 fps, x264@L4.1, ~3516 kbps Аудио 1: AC3, 6 ch, ~384 kbps - | Русский | Аудио 2: E-AC3, 6 ch, ~384 kbps - | Русский | Аудио 3: AC3, 6 ch, ~640 kbps - | Английский | Формат субтитров: softsub (SRT) ***Рип от: -=DoMiNo=-
[+] M/Ix264 : frame I:869 Avg QP:13.07 size: 91012 x264 : frame P:24637 Avg QP:15.24 size: 39206 x264 : frame B:104524 Avg QP:17.00 size: 12805 General Unique ID : 4227857817300605165831561524082446627 (0x32E417BEB1DD236B7D3CF5E3B651123) Complete name : R:The.Good.Mother.2023.DUB.BDRip.720p.x264.seleZen.mkv Format : Matroska Format version : Version 4 File size : 3.11 GiB Duration : 1 h 30 min Overall bit rate : 4 926 kb/s Frame rate : 23.976 FPS Movie name : The.Good.Mother.2023.DUB.BDRip.720p.x264.seleZen Encoded date : 2024-02-11 15:42:27 UTC Writing application : mkvmerge v82.0 ('I'm The President') 64-bit Writing library : libebml v1.4.5 + libmatroska v1.7.1 Cover : Yes Attachments : cover.jpg / small_cover.jpg Video ID : 1 Format : AVC Format/Info : Advanced Video Codec Format profile : High@L4.1 Format settings : CABAC / 12 Ref Frames Format settings, CABAC : Yes Format settings, Reference : 12 frames Codec ID : V_MPEG4/ISO/AVC Duration : 1 h 30 min Bit rate : 3 516 kb/s Width : 1 280 pixels Height : 534 pixels Display aspect ratio : 2.40:1 Frame rate mode : Constant Frame rate : 23.976 (24000/1001) FPS Color space : YUV Chroma subsampling : 4:2:0 Bit depth : 8 bits Scan type : Progressive Bits/(Pixel*Frame) : 0.215 Stream size : 2.22 GiB (71%) Title : -=DoMiNo=- Writing library : x264 core 164 r3173 -DoMiNo Encoding settings : cabac=1 / ref=12 / deblock=1:-2:-2 / analyse=0x3:0x133 / me=umh / subme=10 / psy=1 / psy_rd=1.01:0.02 / mixed_ref=1 / me_range=32 / chroma_me=1 / trellis=2 / 8x8dct=1 / cqm=0 / deadzone=21,11 / fast_pskip=0 / chroma_qp_offset=-3 / threads=17 / lookahead_threads=4 / sliced_threads=0 / nr=0 / decimate=0 / interlaced=0 / bluray_compat=0 / constrained_intra=0 / bframes=10 / b_pyramid=2 / b_adapt=2 / b_bias=0 / direct=1 / weightb=1 / open_gop=0 / weightp=2 / keyint=250 / keyint_min=23 / scenecut=40 / intra_refresh=0 / rc_lookahead=60 / rc=crf / mbtree=0 / crf=18.0 / qcomp=0.60 / qpmin=0 / qpmax=69 / qpstep=4 / vbv_maxrate=50000 / vbv_bufsize=62500 / crf_max=0.0 / nal_hrd=none / filler=0 / ip_ratio=1.40 / pb_ratio=1.30 / aq=3:0.90 Language : English Default : Yes Forced : No Audio #1 ID : 2 Format : AC-3 Format/Info : Audio Coding 3 Commercial name : Dolby Digital Codec ID : A_AC3 Duration : 1 h 30 min Bit rate mode : Constant Bit rate : 384 kb/s Channel(s) : 6 channels Channel layout : L R C LFE Ls Rs Sampling rate : 48.0 kHz Frame rate : 31.250 FPS (1536 SPF) Compression mode : Lossy Stream size : 248 MiB (8%) Title : Дублированный | Велес Language : Russian Service kind : Complete Main Default : Yes Forced : No Audio #2 ID : 3 Format : E-AC-3 Format/Info : Enhanced AC-3 Commercial name : Dolby Digital Plus Codec ID : A_EAC3 Duration : 1 h 30 min Bit rate mode : Constant Bit rate : 384 kb/s Channel(s) : 6 channels Channel layout : L R C LFE Ls Rs Sampling rate : 48.0 kHz Frame rate : 31.250 FPS (1536 SPF) Compression mode : Lossy Stream size : 248 MiB (8%) Title : Дублированный | Велес Language : Russian Service kind : Complete Main Default : No Forced : No Audio #3 ID : 4 Format : AC-3 Format/Info : Audio Coding 3 Commercial name : Dolby Digital Codec ID : A_AC3 Duration : 1 h 30 min Bit rate mode : Constant Bit rate : 640 kb/s Channel(s) : 6 channels Channel layout : L R C LFE Ls Rs Sampling rate : 48.0 kHz Frame rate : 31.250 FPS (1536 SPF) Compression mode : Lossy Stream size : 414 MiB (13%) Title : Original Language : English Service kind : Complete Main Default : No Forced : No Text #1 ID : 5 Format : UTF-8 Codec ID : S_TEXT/UTF8 Codec ID/Info : UTF-8 Plain Text Duration : 1 h 10 min Bit rate : 2 b/s Frame rate : 0.006 FPS Count of elements : 25 Stream size : 1.37 KiB (0%) Title : Forced Language : Russian Default : No Forced : No Text #2 ID : 6 Format : UTF-8 Codec ID : S_TEXT/UTF8 Codec ID/Info : UTF-8 Plain Text Duration : 1 h 27 min Bit rate : 35 b/s Frame rate : 0.151 FPS Count of elements : 797 Stream size : 23.0 KiB (0%) Title : Full Language : English Default : No Forced : No Text #3 ID : 7 Format : UTF-8 Codec ID : S_TEXT/UTF8 Codec ID/Info : UTF-8 Plain Text Duration : 1 h 29 min Bit rate : 41 b/s Frame rate : 0.194 FPS Count of elements : 1041 Stream size : 26.9 KiB (0%) Title : SDH Language : English Default : No Forced : No Menu 00:00:00.000 : en:Chapter 01 00:08:49.612 : en:Chapter 02 00:19:04.560 : en:Chapter 03 00:30:04.720 : en:Chapter 04 00:40:40.396 : en:Chapter 05 00:50:26.190 : en:Chapter 06 01:03:46.614 : en:Chapter 07 01:14:21.290 : en:Chapter 08 01:30:22.334 : en:Chapter 09
Релиз: Присоединяйся к: Кликай на баннеры.

Всего файлов в раздаче: 1 
The.Good.Mother.2023.DUB.BDRip.720p.x264.seleZen.mkv3.11 GB

Похожие раздачи по запросу - Гнев
2024-02-25 magnet Волшебный город 4: Гнев океана / Magic City Detective 4: Wrath of the Ocean CE (2024) PC 861.46 MB ↑ 0 ↓ 0
2024-02-12 magnet Гнев / Man on Fire (2004) WEB-DL 1080p | D, P, P2, A | Open Matte 25.25 GB ↑ 0 ↓ 0
2024-02-12 magnet Гнев / Man on Fire (2004) WEB-DLRip-AVC от DoMiNo | D, P, A | Open Matte 3.95 GB ↑ 0 ↓ 0
2024-02-12 magnet Гнев / Man on Fire (2004) WEB-DLRip 1080p | P | Jaskier 12.45 GB ↑ 0 ↓ 0
2024-02-12 magnet Гнев материнский / The Good Mother (2023) BDRip-AVC от DoMiNo & селезень | D 1.33 GB ↑ 0 ↓ 0
2024-02-12 magnet Гнев материнский / The Good Mother (2023) BDRip от MegaPeer | D 1.46 GB ↑ 0 ↓ 0
2024-02-12 magnet Гнев материнский / The Good Mother (2023) BDRip 1080p от селезень | D 7.20 GB ↑ 0 ↓ 0

Комментарии


Зарегистрируйтесь чтобы добавить комментарий
Торрент клиент
byTorrent - программа для загрузки торрент-файлов.

Скачать byTorrent.exe (1,5 МБ)

Скачать byTorrent.zip (0,6 МБ)

Поддержи torrent.by
российских рублей
(300 российских рублей это 4$)

Обратная связь rss

End game ©