↑↓torrent.by
Поиск
Логин:  Регистрация
Пароль:

Хало / Halo [02x01-02 из 08] (2024) WEB-DL-HEVC 2160p | 4K | HDR | Dolby Vision | AlexFilm

download Скачать торрент-файл   magnet Магнитная ссылка Размер: 11.16 GB Добавлен: 2024-02-12 05:00
Пиры будут получены из сети DHT
Последний сидер был замечен 2024-02-19 08:04
Информация о сериале Название: Хало Оригинальное название: Halo Год выхода: 2024 Жанр: Фантастика, боевик Режиссёр: Отто Батхёрст, Джонатан Либесман, Роэль Рейн В ролях: Пабло Шрайбер, Наташа МакЭлхоун, Ерин Ха, Боким Вудбайн, Джен Тейлор, Шабана Азми, Олив Грэй, Чарли Мёрфи, Кейт Кеннеди, Бентли Калу и др. Описание: В XXVI веке между земными силами Космического командования Объединённых наций и религиозным союзом нескольких инопланетных рас идёт ожесточённая война. Люди изо всех сил борются за выживание, но всё же сдают позиции на всех фронтах. Последней надеждой становится проект SPARTAN-II — программа создания усиленных людей, которые должны стать самым эффективным оружием в борьбе с пришельцами. Противники находят и уничтожают планету вместе со спартанцами. Спастись удаётся всего одному кораблю — «Столпу осени», на котором находится последний выживший спартанец Джон-117. Именно ему предстоит изменить ход войны, когда он оказывается на загадочном инопланетном артефакте Halo — мире-кольце. Страна: США Студия: Paramount+ Продолжительность: ~01:00:00 Перевод: Профессиональный (многоголосый закадровый) | AlexFilm | thx. KinoPub Файл Кодек: MPEG-H HEVC Качество: WEB-DL-HEVC 2160p | 4K | HDR | Dolby Vision Видео: 3840x2160 (16:9), 23.976 fps, ~ 14 Mbps, 10 бит Аудио №1: AC3, 48,0 kHz, 6 ch, 384 kbps | AlexFilm Аудио №2: AC3, 48,0 kHz, 6 ch, 640 kbps | Original Аудио №3: EAC3+Atmos, 48,0 kHz, 6 ch, 768 kbps | Original Субтитры: Английские (Full, SDH) Реклама: Отсутствует (присутствует только информация о спонсоре) Исходник: Halo.S02.2160p.PMTP.WEB-DL.DDP5.1.Atmos.DV.HDR.H.265-FLUX
[+] Список серий:01. Sanctuary / Санктуарий 02. Sword / Меч
[+] MediaInfo:Complete name : D:Halo_(s02)_AlexFilm_2160pHalo.2024.S02E01.Sanctuary.2160p.PMTP.WEB-DL.DDP5.1.Atmos.DV.HDR.x265-FLUX_EniaHD.mkv Format : Matroska Format version : Version 4 File size : 6.18 GiB Duration : 57 min 34 s Overall bit rate : 15.4 Mb/s Encoded date : UTC 2024-02-10 07:35:25 Writing application : mkvmerge v58.0.0 ('Supper's Ready') 64-bit Writing library : libebml v1.4.2 + libmatroska v1.6.4 Video ID : 1 Format : HEVC Format/Info : High Efficiency Video Coding Format profile : Main 10@L5@Main HDR format : Dolby Vision, Version 1.0, dvhe.08.06, BL+RPU, HDR10 compatible / SMPTE ST 2094 App 4, Version 1, HDR10+ Profile B compatible Codec ID : V_MPEGH/ISO/HEVC Duration : 57 min 34 s Bit rate : 13.6 Mb/s Width : 3 840 pixels Height : 2 160 pixels Display aspect ratio : 16:9 Frame rate mode : Constant Frame rate : 23.976 (24000/1001) FPS Color space : YUV Chroma subsampling : 4:2:0 (Type 2) Bit depth : 10 bits Bits/(Pixel*Frame) : 0.068 Stream size : 5.45 GiB (88%) Title : Release by EniaHD Default : Yes Forced : No Color range : Limited Color primaries : BT.2020 Transfer characteristics : PQ Matrix coefficients : BT.2020 non-constant Mastering display color pri : Display P3 Mastering display luminance : min: 0.0001 cd/m2, max: 1000 cd/m2 Maximum Content Light Level : 500 cd/m2 Maximum Frame-Average Light : 126 cd/m2 Audio #1 ID : 2 Format : AC-3 Format/Info : Audio Coding 3 Commercial name : Dolby Digital Codec ID : A_AC3 Duration : 57 min 34 s Bit rate mode : Constant Bit rate : 384 kb/s Channel(s) : 6 channels Channel layout : L R C LFE Ls Rs Sampling rate : 48.0 kHz Frame rate : 31.250 FPS (1536 SPF) Compression mode : Lossy Stream size : 158 MiB (3%) Title : AlexFilm Language : Russian Service kind : Complete Main Default : Yes Forced : No Audio #2 ID : 3 Format : AC-3 Format/Info : Audio Coding 3 Commercial name : Dolby Digital Codec ID : A_AC3 Duration : 57 min 34 s Bit rate mode : Constant Bit rate : 640 kb/s Channel(s) : 6 channels Channel layout : L R C LFE Ls Rs Sampling rate : 48.0 kHz Frame rate : 31.250 FPS (1536 SPF) Compression mode : Lossy Stream size : 264 MiB (4%) Language : English Service kind : Complete Main Default : No Forced : No Audio #3 ID : 4 Format : E-AC-3 JOC Format/Info : Enhanced AC-3 with Joint Object Coding Commercial name : Dolby Digital Plus with Dolby Atmos Codec ID : A_EAC3 Duration : 57 min 34 s Bit rate mode : Constant Bit rate : 768 kb/s Channel(s) : 6 channels Channel layout : L R C LFE Ls Rs Sampling rate : 48.0 kHz Frame rate : 31.250 FPS (1536 SPF) Compression mode : Lossy Stream size : 316 MiB (5%) Language : English Service kind : Complete Main Default : No Forced : No Complexity index : 16 Number of dynamic objects : 15 Bed channel count : 1 channel Bed channel configuration : LFE Text #1 ID : 5 Format : UTF-8 Codec ID : S_TEXT/UTF8 Codec ID/Info : UTF-8 Plain Text Duration : 55 min 11 s Bit rate : 57 b/s Count of elements : 796 Stream size : 23.2 KiB (0%) Title : Full Language : English Default : No Forced : No Text #2 ID : 6 Format : UTF-8 Codec ID : S_TEXT/UTF8 Codec ID/Info : UTF-8 Plain Text Duration : 55 min 32 s Bit rate : 65 b/s Count of elements : 919 Stream size : 26.6 KiB (0%) Title : SDH Language : English Default : No Forced : No Menu 00:00:00.000 : Main 00:56:24.000 : Credits
[+] Скриншоты

Всего файлов в раздаче: 2 
Halo.2024.S02E01.Sanctuary.2160p.PMTP.WEB-DL.DDP5.1.Atmos.DV.HDR.x265-FLUX_EniaHD.mkv6.18 GB
Halo.2024.S02E02.Sword.2160p.PMTP.WEB-DL.DDP5.1.Atmos.DV.HDR.x265-FLUX_EniaHD.mkv4.99 GB

Похожие раздачи по запросу - Хало
Сегодня magnet Хало / Halo [02x01-05 из 08] (2024) WEB-DL 1080p от NewComers | P 12.42 GB ↑ 0 ↓ 0
Вчера magnet Хало / Halo [02x01-05 из 08] (2024) WEB-DLRip-AVC от DoMiNo & селезень | LostFilm 3.05 GB ↑ 0 ↓ 1
2024-03-03 magnet Хало / Halo [02x01-05 из 08] (2024) WEB-DL-HEVC 2160p | 4K | HDR | Dolby Vision | AlexFilm 2К28.52 GB ↑ 0 ↓ 1
2024-03-03 magnet Хало / Halo [02x01-05 из 08] (2024) WEB-DL 1080p от Jaskier | P 11.05 GB ↑ 1 ↓ 1
2024-02-28 magnet Хало / Halo [01-02x01-13 из 17] (2022-2024) WEB-DLRip | LostFilm 9.11 GB ↑ 0 ↓ 1
2024-02-26 magnet Хало / Halo [02x01-04 из 08] (2024) WEB-DL-HEVC 2160p | 4K | HDR | Dolby Vision | AlexFilm 21.87 GB ↑ 0 ↓ 0
2024-02-24 magnet Хало / Halo [02x01-04 из 08] (2024) WEB-DLRip-AVC от DoMiNo & селезень | LostFilm 2.32 GB ↑ 0 ↓ 0

Комментарии


Зарегистрируйтесь чтобы добавить комментарий
Торрент клиент
byTorrent - программа для загрузки торрент-файлов.

Скачать byTorrent.exe (1,5 МБ)

Скачать byTorrent.zip (0,6 МБ)

Поддержи torrent.by
российских рублей
(300 российских рублей это 4$)

Обратная связь rss

End game ©