↑↓torrent.by
Поиск
Логин:  Регистрация
Пароль:

The Chisel - What A Fucking Nightmare [24-bit Hi-Res] (2024) FLAC

download Скачать торрент-файл   magnet Магнитная ссылка Размер: 292.79 MB Добавлен: 2024-02-12 11:00
Пиры будут получены из сети DHT
Последний сидер был замечен 2024-02-12 11:00
Название: What A Fucking Nightmare Исполнитель: The Chisel Год: 2024 Жанр: Rock, Punk, New-Wave Издатель (лейбл): Pure Noise Records Продолжительность: 00:36:28 Формат/Кодек: FLAC Тип рипа: Tracks Битрейт аудио: Lossless Разрядность: 24 Bit/48 kHz
[+] Трек-лист 01. What A Fucking Nightmare 02. No Gimmicks 03. Cry Your Eyes Out 04. Nice To Meet You 05. Living For Myself 06. Fuck 'em 07. Lying Little Rat (Propaganda) 08. Bloodsucker 09. Aint Seen Nothing Yet 10. Those Days 11. Evil By Evil 12. Tomorrow 13. Vengeance Is For Me 14. What Do You Mean 15. Cuts Like A Knife 16. What I See
[+] DRM foobar2000 1.5.5 / Замер динамического диапазона (DR) 1.1.1 ------------------------------------------------------------------------------- Анализ: The Chisel / What A Fucking Nightmare -------------------------------------------------------------------------------- DR Пики RMS Продолжительность трека -------------------------------------------------------------------------------- DR6 -0.20 дБ -7.49 дБ 0:40 01-What A Fucking Nightmare DR6 -0.20 дБ -6.93 дБ 1:33 02-No Gimmicks DR7 -0.20 дБ -7.61 дБ 2:26 03-Cry Your Eyes Out DR8 -0.20 дБ -8.84 дБ 2:18 04-Nice To Meet You DR7 -0.20 дБ -7.99 дБ 1:50 05-Living For Myself DR5 -0.20 дБ -6.43 дБ 1:21 06-Fuck 'em DR7 -0.20 дБ -8.02 дБ 2:20 07-Lying Little Rat (Propaganda) DR7 -0.20 дБ -8.05 дБ 2:17 08-Bloodsucker DR7 -0.20 дБ -7.86 дБ 3:29 09-Aint Seen Nothing Yet DR6 -0.20 дБ -7.20 дБ 2:26 10-Those Days DR6 -0.20 дБ -7.40 дБ 2:08 11-Evil By Evil DR6 -0.20 дБ -6.37 дБ 2:08 12-Tomorrow DR6 -0.20 дБ -7.15 дБ 2:39 13-Vengeance Is For Me DR7 -0.20 дБ -8.64 дБ 2:56 14-What Do You Mean DR6 -0.20 дБ -6.56 дБ 3:37 15-Cuts Like A Knife DR6 -0.20 дБ -6.83 дБ 2:20 16-What I See -------------------------------------------------------------------------------- Количество треков: 16 Реальные значения DR: DR6 Частота: 48000 Гц Каналов: 2 Разрядность: 24 Битрейт: 1109 кбит/с Кодек: FLAC ================================================================================
Время раздачи: 24/7 (минимум до появления первых 3-5 скачавших, на раздачи не возвращаюсь) Первое правило участника файлообмена: "Скачал сам - дай скачать другому!"

Всего файлов в раздаче: 17 
01. What A Fucking Nightmare.flac4.88 MB
02. No Gimmicks.flac13.15 MB
03. Cry Your Eyes Out.flac20.21 MB
04. Nice To Meet You.flac17.99 MB
05. Living For Myself.flac15.00 MB
06. Fuck 'Em.flac11.04 MB
07. Lying Little Rat (Propaganda).flac17.80 MB
08. Bloodsucker.flac17.58 MB
09. Aint Seen Nothing Yet.flac27.83 MB
10. Those Days.flac20.38 MB
Показать все файлы

Комментарии


Зарегистрируйтесь чтобы добавить комментарий
Торрент клиент
byTorrent - программа для загрузки торрент-файлов.

Скачать byTorrent.exe (1,5 МБ)

Скачать byTorrent.zip (0,6 МБ)

Поддержи torrent.by
российских рублей
(300 российских рублей это 4$)

Обратная связь rss

End game ©