↑↓torrent.by
Поиск
Логин:  Регистрация
Пароль:

The Strumbellas - Part Time Believer [24-bit Hi-Res] (2024) FLAC

download Скачать торрент-файл   magnet Магнитная ссылка Размер: 868.72 MB Добавлен: 2024-02-12 11:00
Пиры будут получены из сети DHT
Последний сидер был замечен 2024-02-12 11:00
Название: Part Time Believer Исполнитель: The Strumbellas Год: 2024 Жанр: Alternative, Indie Издатель (лейбл): Glassnote Music LLC Продолжительность: 00:41:08 Формат/Кодек: FLAC Тип рипа: Tracks Битрейт аудио: Lossless Разрядность: 24 Bit/96 kHz
[+] Трек-лист 01. Hold Me 02. Holster 03. Steal My Soul 04. Running Out Of Time 05. Let Down 06. The Hurt 07. Echoes 08. My Home Is You 09. Hurricane 10. Great Unknown 11. Florence 12. Wreckage
[+] DRM foobar2000 1.5.5 / Замер динамического диапазона (DR) 1.1.1 ------------------------------------------------------------------------------- Анализ: The Strumbellas / Part Time Believer -------------------------------------------------------------------------------- DR Пики RMS Продолжительность трека -------------------------------------------------------------------------------- DR6 -0.16 дБ -7.43 дБ 2:52 01-Hold Me DR6 -0.16 дБ -7.58 дБ 3:01 02-Holster DR7 -0.16 дБ -8.48 дБ 3:14 03-Steal My Soul DR6 -0.16 дБ -7.22 дБ 3:45 04-Running Out Of Time DR6 -0.16 дБ -6.89 дБ 3:20 05-Let Down DR5 -0.16 дБ -7.35 дБ 3:23 06-The Hurt DR6 -0.16 дБ -7.36 дБ 3:25 07-Echoes DR6 -0.03 дБ -8.64 дБ 3:23 08-My Home Is You DR6 -0.16 дБ -8.43 дБ 3:45 09-Hurricane DR6 -0.16 дБ -7.92 дБ 3:31 10-Great Unknown DR6 -0.16 дБ -7.77 дБ 3:20 11-Florence DR9 -0.16 дБ -13.46 дБ 4:09 12-Wreckage -------------------------------------------------------------------------------- Количество треков: 12 Реальные значения DR: DR6 Частота: 96000 Гц Каналов: 2 Разрядность: 24 Битрейт: 2507 кбит/с Кодек: FLAC ================================================================================
Время раздачи: 24/7 (минимум до появления первых 3-5 скачавших, на раздачи не возвращаюсь) Первое правило участника файлообмена: "Скачал сам - дай скачать другому!"

Всего файлов в раздаче: 13 
01. Hold Me.flac62.36 MB
02. Holster.flac65.43 MB
03. Steal My Soul.flac68.33 MB
04. Running Out of Time.flac81.74 MB
05. Let Down.flac73.79 MB
06. The Hurt.flac71.57 MB
07. Echoes.flac75.11 MB
08. My Home Is You.flac67.25 MB
09. Hurricane.flac78.87 MB
10. Great Unknown.flac78.97 MB
Показать все файлы

Комментарии


Зарегистрируйтесь чтобы добавить комментарий
Торрент клиент
byTorrent - программа для загрузки торрент-файлов.

Скачать byTorrent.exe (1,5 МБ)

Скачать byTorrent.zip (0,6 МБ)

Поддержи torrent.by
российских рублей
(300 российских рублей это 4$)

Обратная связь rss

End game ©