↑↓torrent.by
Поиск
Логин:  Регистрация
Пароль:

Как заниматься сексом / How to Have Sex (2023) HDRip от ExKinoRay | D

download Скачать торрент-файл   magnet Магнитная ссылка Размер: 748.88 MB Добавлен: 2024-02-12 11:00
Пиры будут получены из сети DHT
Последний сидер был замечен 2024-02-14 01:35
Информация о фильме Название: Как заниматься сексом Оригинальное название: How to Have Sex Год выхода: 2023 Жанр: драма Режиссер: Молли Мэннинг Уокер В ролях: Миа Маккенна-Брюс, Шон Томас, Лара Пик, Энва Льюис, Сэмюэл Боттомли, Лаура Эмблер, Анна Антониадес, Дэйзи Джелли, Финлэй Вэйн Ласт, Эли Лоан О фильме: Три подруги из Лондона, только что окончившие школу, собираются провести лучшее лето в своей жизни. Они отправляются на Крит, чтобы ходить по клубам, пить и танцевать — все, что угодно, лишь бы не думать о результатах экзаменов. Но вечеринки до рассвета и безрассудное веселье могут обернуться не тем, о чем им мечталось. «Как заниматься сексом» (2023) — дебютная драма Молли Мэннинг Уокер, исследующая темы дружбы, желаний, сексуальности, последствий пренебрежения, зависти и социальных стереотипов; победитель секции «Особый взгляд» Каннского кинофестиваля-2023. Страна: Великобритания, Греция Студия: BFI, Film4, Heretic, Wild Swim Films Продолжительность: 01:30:37 Перевод: Профессиональный дублированный - Велес Файл Кодек: XviD Качество: HDRip Видео: 624x336 (1.85:1), 24 fps, XviD build 67 ~1015 kbps avg, 0.20 bit/pixel Звук: 48 kHz, MP3, 2 ch, ~128 kbps avg Субтитры: Русские (Forced) - не отключаемые
[+] MediaInfoGeneral Complete name : D:Izgotowlenie RipaHow.to.Have.Sex.2023.HDRip by.ExKinoRay.avi Format : AVI Format/Info : Audio Video Interleave Format settings : BitmapInfoHeader / WaveFormatEx File size : 749 MiB Duration : 1 h 30 min Overall bit rate : 1 155 kb/s Frame rate : 24.000 FPS Movie name : How.to.Have.Sex.2023.HDRip by.ExKinoRay Recorded date : 2023 Writing application : Lavf58.29.100 Video ID : 0 Format : MPEG-4 Visual Format profile : Advanced Simple@L5 Format settings : BVOP1 Format settings, BVOP : 1 Format settings, QPel : No Format settings, GMC : No warppoints Format settings, Matrix : Default (H.263) Codec ID : XVID Codec ID/Hint : XviD Duration : 1 h 30 min Bit rate : 1 015 kb/s Width : 624 pixels Height : 336 pixels Display aspect ratio : 1.85:1 Frame rate : 24.000 FPS Color space : YUV Chroma subsampling : 4:2:0 Bit depth : 8 bits Scan type : Progressive Compression mode : Lossy Bits/(Pixel*Frame) : 0.202 Stream size : 658 MiB (88%) Writing library : XviD 67 Audio ID : 1 Format : MPEG Audio Format version : Version 1 Format profile : Layer 3 Format settings : Joint stereo Codec ID : 55 Codec ID/Hint : MP3 Duration : 1 h 30 min Bit rate mode : Constant Bit rate : 128 kb/s Channel(s) : 2 channels Sampling rate : 48.0 kHz Compression mode : Lossy Stream size : 82.9 MiB (11%) Alignment : Aligned on interleaves Interleave, duration : 24 ms (0.58 video frame) Title : Dublirovannyj Writing library : LAME3.100
[+] Скриншоты
Релиз от: Рип изготовил:

Всего файлов в раздаче: 1 
How.to.Have.Sex.2023.HDRip by.ExKinoRay.avi748.88 MB

Похожие раздачи по запросу - Как
Сегодня magnet Как Деревянко Ломоносова играл [01-10 из 13] (2024) WEB-DLRip-AVC от Files-x 1К3.05 GB ↑ 0 ↓ 0
Сегодня magnet Как Деревянко Ломоносова играл [01x01-10 из 13] (2023) WEB-DL 720p от Files-x 3.76 GB ↑ 0 ↓ 0
Сегодня magnet Как Деревянко Ломоносова играл [01-10 из 13] (2024) WEB-DL 1080p 2К7.10 GB ↑ 0 ↓ 0
Сегодня magnet Как Деревянко Ломоносова играл [01-10 из 13] (2024) WEB-DLRip 1К3.16 GB ↑ 0 ↓ 0
Вчера magnet В этом мире я больше не чувствую себя как дома / I Don't Feel at Home in This World Anymore (2017) WEBRip-AVC от DoMiNo | P2 743.28 MB ↑ 0 ↓ 0
Вчера magnet Как Деревянко Ломоносова играл [01-07 из 13] (2024) WEB-DL 1080p 4.98 GB ↑ 0 ↓ 0
Вчера magnet Как Деревянко Ломоносова играл [01-07 из 13] (2024) WEB-DLRip 2.22 GB ↑ 0 ↓ 0

Комментарии


Зарегистрируйтесь чтобы добавить комментарий
Торрент клиент
byTorrent - программа для загрузки торрент-файлов.

Скачать byTorrent.exe (1,5 МБ)

Скачать byTorrent.zip (0,6 МБ)

Поддержи torrent.by
российских рублей
(300 российских рублей это 4$)

Обратная связь rss

End game ©