↑↓torrent.by
Поиск
Логин:  Регистрация
Пароль:

Потерпевшие крушение / The Castaways / Сезон: 1 / Серии: 1-5 из 5 [2023, триллер, драма, WEB-DL 1080p] MVO (TVShows, RuDub)

download Скачать торрент-файл   magnet Магнитная ссылка Размер: 16.75 GB Раздают: 2 Качают: 0 Добавлен: il68k 2024-02-12 11:34
Пиры будут получены из сети DHT
Последний сидер был замечен сегодня в 19:32
Потерпевшие крушение / The Castaways

Год выпуска: 2023 Страна: Великобритания Жанр: Триллер, драма Продолжительность: ~ 00:50:00 Телеканал: Paramount+
Перевод: Профессиональный (многоголосый закадровый) TVShows Перевод: Любительский (многоголосый закадровый) RuDub
Режиссёр: Энди Тохилл, Райан Тохилл
В ролях: Шеридан Смит, Селин Бакенс, Брендан Коуэлл, Ласарус Ратуэре, Шарлотта Вега, Доминик Тай, Алекс Чайлдс, Глория Сантильяна
Описание: Адаптация одноименного романа Люси Кларк. Лори и Эрин – сёстры, которые собираются отправиться на Фиджи. Наконец-то у них появилась возможность как следует отдохнуть. Оказаться на райском острове – это то, о чём всегда мечтали девушки. Увы, но отправиться придётся отдельно друг от друга: перед посадкой на самолёт Эрин и Лори поругались, из-за чего первая решила не садиться на рейс. Вторая же, в свою очередь, уверена, что сестра подтянется позже, однако сама не добирается до точки назначения. Самолёт так и не приземляется на Фиджи, пропадая с радаров всех систем. Пройдет несколько месяцев, прежде чем спасательные группы смогут обнаружить хоть какие-то зацепки. Понятно одно: произошло что-то необъяснимое и странное, так как выживших после случившегося и обломков самолёта как не было, так и нет. Неожиданно Эрин становится свидетелем удивительного: карта Лори оказывается активирована в отдалённом магазинчике, а на камерах видеонаблюдения запечатлён пилот того рейса. Главная героиня отправляется на Фиджи, чтобы начать собственное расследование и выяснить, что случилось с её близким человеком. Они так и не смогли помириться при жизни, но Эрин надеется, что Лори по-прежнему жива...

Качество: WEB-DL (1080p) Контейнер: MKV Видео: MPEG-4 AVC, ~ 7821 Кбит/с, 1920x1080 (1.777), 25.000 кадр/с Аудио RUS: АС3, 6 ch, 48 kHz, 384 kbps |TVShows| Аудио RUS: АС3, 2 ch, 48 kHz, 192 kbps |RuDub| Аудио ENG: E-AC3, 6 ch, 48 kHz, 640 kbps |Original| Субтитры: ENG: (Full, SDH) Реклама: Отсутствует
[+] MediaInfo
Общее
Уникальный идентификатор                 : 123794486759247008994663247120098357300 (0x5D21F36E2E299D5F30C089C0760B7034)
Полное имя                               : E:\The.Castaways.S01E01.1080p.AMZN.WEB-DL.H.264.RGzsRutracker.mkv
Формат                                   : Matroska
Версия формата                           : Version 4
Размер файла                             : 2,98 Гбайт
Продолжительность                        : 47 м. 9 с.
Общий поток                              : 9 040 Кбит/сек
Частота кадров                           : 25,000 кадров/сек
Дата кодирования                         : 2024-02-10 23:14:37 UTC
Программа кодирования                    : mkvmerge v81.0 ('Milliontown') 64-bit
Библиотека кодирования                   : libebml v1.4.4 + libmatroska v1.7.1

Видео
Идентификатор                            : 1
Формат                                   : AVC
Формат/Информация                        : Advanced Video Codec
Профиль формата                          : High@L4
Настройки формата                        : CABAC / 4 Ref Frames
Параметр CABAC формата                   : Да
Параметр RefFrames формата               : 4 кадра
Идентификатор кодека                     : V_MPEG4/ISO/AVC
Продолжительность                        : 47 м. 9 с.
Вид битрейта                             : Постоянный
Битрейт                                  : 7 821 Кбит/сек
Номинальный битрейт                      : 10 000 Кбит/сек
Ширина                                   : 1 920 пикселей
Высота                                   : 1 080 пикселей
Соотношение сторон                       : 16:9
Режим частоты кадров                     : Постоянный
Частота кадров                           : 25,000 кадров/сек
Цветовое пространство                    : YUV
Субдискретизация насыщенности            : 4:2:0
Битовая глубина                          : 8 бит
Тип развёртки                            : Прогрессивная
Бит/(Пиксели*Кадры)                      : 0.151
Размер потока                            : 2,58 Гбайт (87%)
Default                                  : Да
Forced                                   : Нет
Цветовой диапазон                        : Limited
Основные цвета                           : BT.709
Характеристики трансфера                 : BT.709
Коэффициенты матрицы                     : BT.709

Аудио #1
Идентификатор                            : 2
Формат                                   : AC-3
Формат/Информация                        : Audio Coding 3
Коммерческое название                    : Dolby Digital
Идентификатор кодека                     : A_AC3
Продолжительность                        : 47 м. 9 с.
Вид битрейта                             : Постоянный
Битрейт                                  : 384 Кбит/сек
Каналы                                   : 6 каналов
Channel layout                           : L R C LFE Ls Rs
Частота                                  : 48,0 КГц
Частота кадров                           : 31,250 кадров/сек (1536 SPF)
Метод сжатия                             : С потерями
Размер потока                            : 130 Мбайт (4%)
Заголовок                                : TVShows
Язык                                     : Russian
Service kind                             : Complete Main
Default                                  : Да
Forced                                   : Нет

Аудио #2
Идентификатор                            : 3
Формат                                   : AC-3
Формат/Информация                        : Audio Coding 3
Коммерческое название                    : Dolby Digital
Идентификатор кодека                     : A_AC3
Продолжительность                        : 47 м. 9 с.
Вид битрейта                             : Постоянный
Битрейт                                  : 192 Кбит/сек
Каналы                                   : 2 канала
Channel layout                           : L R
Частота                                  : 48,0 КГц
Частота кадров                           : 31,250 кадров/сек (1536 SPF)
Метод сжатия                             : С потерями
Размер потока                            : 64,8 Мбайт (2%)
Заголовок                                : RuDub
Язык                                     : Russian
Service kind                             : Complete Main
Default                                  : Нет
Forced                                   : Нет

Аудио #3
Идентификатор                            : 4
Формат                                   : E-AC-3
Формат/Информация                        : Enhanced AC-3
Коммерческое название                    : Dolby Digital Plus
Идентификатор кодека                     : A_EAC3
Продолжительность                        : 47 м. 9 с.
Вид битрейта                             : Постоянный
Битрейт                                  : 640 Кбит/сек
Каналы                                   : 6 каналов
Channel layout                           : L R C LFE Ls Rs
Частота                                  : 48,0 КГц
Частота кадров                           : 31,250 кадров/сек (1536 SPF)
Метод сжатия                             : С потерями
Размер потока                            : 216 Мбайт (7%)
Язык                                     : English
Service kind                             : Complete Main
Default                                  : Да
Forced                                   : Нет

Текст #1
Идентификатор                            : 5
Формат                                   : UTF-8
Идентификатор кодека                     : S_TEXT/UTF8
Идентификатор кодека/Информация          : UTF-8 Plain Text
Продолжительность                        : 46 м. 9 с.
Битрейт                                  : 48 бит/сек
Частота кадров                           : 0,206 кадр/сек
Count of elements                        : 570
Размер потока                            : 16,5 Кбайт (0%)
Заголовок                                : British
Язык                                     : English (GB)
Default                                  : Нет
Forced                                   : Нет

Текст #2
Идентификатор                            : 6
Формат                                   : UTF-8
Идентификатор кодека                     : S_TEXT/UTF8
Идентификатор кодека/Информация          : UTF-8 Plain Text
Продолжительность                        : 46 м. 23 с.
Битрейт                                  : 59 бит/сек
Частота кадров                           : 0,259 кадр/сек
Count of elements                        : 720
Размер потока                            : 20,2 Кбайт (0%)
Заголовок                                : British (SDH)
Язык                                     : English (GB)
Default                                  : Нет
Forced                                   : Нет
[+] Скриншоты

Всего файлов в раздаче: 5 
The.Castaways.S01E01.1080p.AMZN.WEB-DL.H.264.RGzsRutracker.mkv2.98 GB
The.Castaways.S01E02.1080p.AMZN.WEB-DL.H.264.RGzsRutracker.mkv3.71 GB
The.Castaways.S01E03.1080p.AMZN.WEB-DL.H.264.RGzsRutracker.mkv3.49 GB
The.Castaways.S01E04.1080p.AMZN.WEB-DL.H.264.RGzsRutracker.mkv3.24 GB
The.Castaways.S01E05.1080p.AMZN.WEB-DL.H.264.RGzsRutracker.mkv3.33 GB

Комментарии


Зарегистрируйтесь чтобы добавить комментарий
Торрент клиент
byTorrent - программа для загрузки торрент-файлов.

Скачать byTorrent.exe (1,5 МБ)

Скачать byTorrent.zip (0,6 МБ)

Поддержи torrent.by
российских рублей
(300 российских рублей это 4$)

Обратная связь rss

End game ©