↑↓torrent.by
Поиск
Логин:  Регистрация
Пароль:

Аполлон 13 / Apollo 13 (1995) BDRip 720p от New-Team | D, P, A

download Скачать торрент-файл   magnet Магнитная ссылка Размер: 4.36 GB Добавлен: 2024-02-12 17:00
Пиры будут получены из сети DHT
Последний сидер был замечен 2024-02-13 09:36
Страна: США Производство: Imagine Entertainment, Universal Pictures Жанр: драма, приключения, история Год выпуска: 1995 Продолжительность: 02:19:50 Перевод: Профессиональный (полное дублирование) Blu-Ray, Профессиональный (многоголосый закадровый) ОРТ, Премьер Видео, СТС, Авторский А. Гаврилов, А. Кашкин, С. Визгунов Оригинальная аудиодорожка: английский Cубтитры: русский, русский (форсированные) Режиссер: Рон Ховард / Ron Howard В ролях: Том Хэнкс, Билл Пэкстон, Кевин Бейкон, Гэри Синиз, Эд Харрис, Кэтлин Куинлен, Мэри Кейт Шеллхардт, Эмили Энн Ллойд, Мико Хьюз, Макс Эллиотт Слэйд... Подробнее об актерах Описание: Фильм о неудачной лунной миссии «Аполлон-13» — одном из самых драматических моментов освоения космоса. В 1970 «Аполлон-13» должен был стать третьим космическим кораблём, который доставил бы астронавтов на Луну. Однако уже на подлёте к цели на корабле произошла серьёзная авария, которая не только поставила крест на высадке, но и создала угрозу жизни экипажа… Исходник: BDRemux 1080p Тип релиза: BDRip 720p Контейнер: MKV Видео: 1280x542 (2.35:1), 23,976 кадра/сек, x264 core 164 r3172 ~ 2 931 кбит/сек, 0.176 бит/пиксель Аудио: 48 кГц, Dolby Digital AC3 2.0, 192 кбит/сек Dub Аудио: 48 кГц, Dolby Digital AC3 2.0, 192 кбит/сек ОРТ Аудио: 48 кГц, Dolby Digital AC3 2.0, 192 кбит/сек Премьер Видео Аудио: 48 кГц, Dolby Digital AC3 2.0, 192 кбит/сек СТС Аудио: 48 кГц, Dolby Digital AC3 2.0, 192 кбит/сек А. Гаврилов Аудио: 48 кГц, Dolby Digital AC3 2.0, 192 кбит/сек А. Кашкин Аудио: 48 кГц, Dolby Digital AC3 2.0, 192 кбит/сек С. Визгунов Аудио: 48 кГц, Dolby Digital AC3 2.0, 192 кбит/сек Английский Субтитры: SoftSub (srt) Оригинальная навигация по главам: есть Раздача от:
[+] MediaInfo Общее Полное имя : Аполлон 13.1995.BDRip720p__by_AVP_Studio.mkv Формат : Matroska Версия формата : Version 4 Размер файла : 4,36 Гбайт Продолжительность : 2 ч. 20 м. Общий поток : 4 455 Кбит/сек Частота кадров : 23,976 кадра/сек Дата кодирования : 2024-02-12 07:25:07 UTC Программа кодирования : mkvmerge v82.0 ('I'm The President') 64-bit Библиотека кодирования : libebml v1.4.5 + libmatroska v1.7.1 Видео Идентификатор : 1 Формат : AVC Формат/Информация : Advanced Video Codec Профиль формата : High@L4.1 Настройки формата : CABAC / 8 Ref Frames Параметр CABAC формата : Да Параметр RefFrames формата : 8 кадров Идентификатор кодека : V_MPEG4/ISO/AVC Продолжительность : 2 ч. 19 м. Битрейт : 2 931 Кбит/сек Ширина : 1 280 пикселей Высота : 542 пикселя Соотношение сторон : 2,35:1 Режим частоты кадров : Постоянный Частота кадров : 23,976 (24000/1001) кадра/сек Цветовое пространство : YUV Субдискретизация насыщенности : 4:2:0 Битовая глубина : 8 бит Тип развёртки : Прогрессивная Бит/(Пиксели*Кадры) : 0.176 Размер потока : 2,86 Гбайт (66%) Заголовок : Исходник BDRemux Библиотека кодирования : x264 core 164 r3172 c1c9931 Настройки программы : cabac=1 / ref=8 / deblock=1:-3:-3 / analyse=0x3:0x133 / me=umh / subme=10 / psy=1 / psy_rd=1.00:0.00 / mixed_ref=1 / me_range=32 / chroma_me=1 / trellis=2 / 8x8dct=1 / cqm=0 / deadzone=21,11 / fast_pskip=1 / chroma_qp_offset=-2 / threads=6 / lookahead_threads=1 / sliced_threads=0 / nr=0 / decimate=0 / interlaced=0 / bluray_compat=0 / constrained_intra=0 / bframes=8 / b_pyramid=2 / b_adapt=2 / b_bias=0 / direct=3 / weightb=1 / open_gop=0 / weightp=2 / keyint=240 / keyint_min=24 / scenecut=40 / intra_refresh=0 / rc=2pass / mbtree=0 / bitrate=2931 / ratetol=1.0 / qcomp=0.60 / qpmin=0 / qpmax=69 / qpstep=4 / cplxblur=20.0 / qblur=0.5 / ip_ratio=1.40 / pb_ratio=1.30 / aq=1:1.00 Язык : Russian Default : Да Forced : Нет Аудио #1 Идентификатор : 2 Формат : AC-3 Формат/Информация : Audio Coding 3 Коммерческое название : Dolby Digital Идентификатор кодека : A_AC3 Продолжительность : 2 ч. 19 м. Вид битрейта : Постоянный Битрейт : 192 Кбит/сек Каналы : 2 канала Channel layout : L R Частота : 48,0 КГц Частота кадров : 31,250 кадров/сек (1536 SPF) Метод сжатия : С потерями Размер потока : 192 Мбайт (4%) Заголовок : Профессиональный (дублированный) Blu-Ray Язык : Russian Default : Да Forced : Нет Аудио #2 Идентификатор : 3 Формат : AC-3 Формат/Информация : Audio Coding 3 Коммерческое название : Dolby Digital Идентификатор кодека : A_AC3 Продолжительность : 2 ч. 19 м. Вид битрейта : Постоянный Битрейт : 192 Кбит/сек Каналы : 2 канала Channel layout : L R Частота : 48,0 КГц Частота кадров : 31,250 кадров/сек (1536 SPF) Метод сжатия : С потерями Размер потока : 192 Мбайт (4%) Заголовок : Профессиональный (многоголосый закадровый) ОРТ Язык : Russian Default : Да Forced : Нет Аудио #3 Идентификатор : 4 Формат : AC-3 Формат/Информация : Audio Coding 3 Коммерческое название : Dolby Digital Идентификатор кодека : A_AC3 Продолжительность : 2 ч. 19 м. Вид битрейта : Постоянный Битрейт : 192 Кбит/сек Каналы : 2 канала Channel layout : L R Частота : 48,0 КГц Частота кадров : 31,250 кадров/сек (1536 SPF) Метод сжатия : С потерями Размер потока : 192 Мбайт (4%) Заголовок : Профессиональный (многоголосый закадровый) Премьер Видео Язык : Russian Default : Да Forced : Нет Аудио #4 Идентификатор : 5 Формат : AC-3 Формат/Информация : Audio Coding 3 Коммерческое название : Dolby Digital Идентификатор кодека : A_AC3 Продолжительность : 2 ч. 19 м. Вид битрейта : Постоянный Битрейт : 192 Кбит/сек Каналы : 2 канала Channel layout : L R Частота : 48,0 КГц Частота кадров : 31,250 кадров/сек (1536 SPF) Метод сжатия : С потерями Размер потока : 192 Мбайт (4%) Заголовок : Профессиональный (многоголосый закадровый) СТС Язык : Russian Default : Да Forced : Нет Аудио #5 Идентификатор : 6 Формат : AC-3 Формат/Информация : Audio Coding 3 Коммерческое название : Dolby Digital Идентификатор кодека : A_AC3 Продолжительность : 2 ч. 20 м. Вид битрейта : Постоянный Битрейт : 192 Кбит/сек Каналы : 2 канала Channel layout : L R Частота : 48,0 КГц Частота кадров : 31,250 кадров/сек (1536 SPF) Метод сжатия : С потерями Размер потока : 193 Мбайт (4%) Заголовок : Авторский А. Гаврилов Язык : Russian Default : Да Forced : Нет Аудио #6 Идентификатор : 7 Формат : AC-3 Формат/Информация : Audio Coding 3 Коммерческое название : Dolby Digital Идентификатор кодека : A_AC3 Продолжительность : 2 ч. 19 м. Вид битрейта : Постоянный Битрейт : 192 Кбит/сек Каналы : 2 канала Channel layout : L R Частота : 48,0 КГц Частота кадров : 31,250 кадров/сек (1536 SPF) Метод сжатия : С потерями Размер потока : 192 Мбайт (4%) Заголовок : Авторский А. Кашкин Язык : Russian Default : Да Forced : Нет Аудио #7 Идентификатор : 8 Формат : AC-3 Формат/Информация : Audio Coding 3 Коммерческое название : Dolby Digital Идентификатор кодека : A_AC3 Продолжительность : 2 ч. 19 м. Вид битрейта : Постоянный Битрейт : 192 Кбит/сек Каналы : 2 канала Channel layout : L R Частота : 48,0 КГц Частота кадров : 31,250 кадров/сек (1536 SPF) Метод сжатия : С потерями Размер потока : 192 Мбайт (4%) Заголовок : Авторский С. Визгунов Язык : Russian Default : Да Forced : Нет Аудио #8 Идентификатор : 9 Формат : AC-3 Формат/Информация : Audio Coding 3 Коммерческое название : Dolby Digital Идентификатор кодека : A_AC3 Продолжительность : 2 ч. 19 м. Вид битрейта : Постоянный Битрейт : 192 Кбит/сек Каналы : 2 канала Channel layout : L R Частота : 48,0 КГц Частота кадров : 31,250 кадров/сек (1536 SPF) Метод сжатия : С потерями Размер потока : 192 Мбайт (4%) Заголовок : Оригинал Язык : English Default : Да Forced : Нет Текст #1 Идентификатор : 10 Формат : UTF-8 Идентификатор кодека : S_TEXT/UTF8 Идентификатор кодека/Информация : UTF-8 Plain Text Продолжительность : 2 ч. 5 м. Битрейт : 2 бит/сек Частота кадров : 0,007 кадр/сек Count of elements : 50 Размер потока : 2,29 Кбайт (0%) Заголовок : Forced SRT Язык : Russian Default : Нет Forced : Да Текст #2 Идентификатор : 11 Формат : UTF-8 Идентификатор кодека : S_TEXT/UTF8 Идентификатор кодека/Информация : UTF-8 Plain Text Продолжительность : 2 ч. 13 м. Битрейт : 134 бит/сек Частота кадров : 0,238 кадр/сек Count of elements : 1902 Размер потока : 132 Кбайт (0%) Заголовок : SRT Язык : Russian Default : Нет Forced : Нет Меню 00:00:00.000 : The Moon Walk (Main Titles) 00:09:39.120 : A Slight Change in Destination 00:19:49.354 : Mattingly and the Measles 00:34:21.851 : The Lift-Off 00:45:15.337 : Hello, World 00:49:38.183 : Houston, We Have a Problem... 01:01:59.674 : The Special Report 01:05:52.657 : The Close-Out 01:10:05.451 : The Dark Side 01:15:08.045 : Failure Is Not an Option 01:17:08.040 : The Simulator Gambit 01:19:41.610 : The Carbon Dioxide Problem 01:35:12.581 : A Little Medical Mutiny 01:39:11.153 : The Earth in the Window 01:48:21.495 : Four More Amps 01:56:39.617 : The Damage Done 01:58:49.914 : Farewell, Aquarius 02:05:18.093 : Falling to Earth 02:09:07.156 : Welcome Home 02:14:06.038 : End Credits
[+] Скриншоты

Всего файлов в раздаче: 1 
Аполлон 13.1995.BDRip720p_[New-team]_by_AVP_Studio.mkv4.36 GB

Похожие раздачи по запросу - Аполлон
2024-02-12 magnet Аполлон 13 / Apollo 13 (1995) BDRip-AVC от New-Team | D 2.18 GB ↑ 0 ↓ 0
2023-10-08 magnet Союз-Аполлон. Сила Притяжения (2023) WEBRip-AVC 714.35 MB ↑ 0 ↓ 0

Комментарии


Зарегистрируйтесь чтобы добавить комментарий
Торрент клиент
byTorrent - программа для загрузки торрент-файлов.

Скачать byTorrent.exe (1,5 МБ)

Скачать byTorrent.zip (0,6 МБ)

Поддержи torrent.by
российских рублей
(300 российских рублей это 4$)

Обратная связь rss

End game ©