↑↓torrent.by
Поиск
Логин:  Регистрация
Пароль:

Голодные игры: Баллада о змеях и певчих птицах / The Hunger Games: The Ballad of Songbirds & Snakes (2023) BDRip 1080p | D, P, A

download Скачать торрент-файл   magnet Магнитная ссылка Размер: 11.46 GB Добавлен: 2024-02-12 17:00
Пиры будут получены из сети DHT
Последний сидер был замечен 2024-02-24 22:19
Название: Голодные игры: Баллада о змеях и певчих птицах Оригинальное название: The Hunger Games: The Ballad of Songbirds & Snakes Год выхода: 2023 Производство: США / Lions Gate Films, Good Universe, Color Force Жанр: Фантастика, боевик, триллер, драма, приключения Перевод: Дублированный, многоголосый закадровый, авторский одноголосый Продолжительность: 02:37:09 Режиссёр: Фрэнсис Лоуренс В ролях: Том Блит, Рэйчел Зеглер, Питер Динклэйдж, Хантер Шафер, Джош Андрес Ривера, Джейсон Шварцман, Виола Дэвис, Фионнула Флэнаган, Берн Горман, Эшли Ляо Описание: До того как стать деспотичным президентом Панэма, молодой Кориолан Сноу был последней надеждой своего увядающего рода - некогда великой династии, впавшей в немилость послевоенного Капитолия. Накануне десятых ежегодных Голодных игр Сноу назначают наставником Люси Грей Бэйрд - трибута дистрикта 12. Постепенно девушка привлекает все больше внимание Панэма, становясь фавориткой грядущего соревнования. Готовый на всё, чтобы вернуть своей семье былое величие, Сноу решает обратить ситуацию с Люси в свою пользу. Начинается гонка со временем, которая покажет, кто певчая птица, а кто - змея. Формат: MKV Качество: BDRip 1080p Видео: MPEG-4/AVC, 7500 Кb/s, 1920x804, 0.203 бит/(Пиксели*Кадры), 23.976 fps Аудио 1: AC3, 6 ch, 48.0 kHz, 448 kb/s - Русский дублированный (Мосфильм-Мастер) Аудио 2: E-AC-3, 6 ch, 48.0 kHz, 768 kb/s - Русский MVO (TVShows) Аудио 3: E-AC-3, 6 ch, 48.0 kHz, 768 kb/s - Русский AVO (Юрий Сербин) Аудио 4: AC3, 2 ch, 48.0 kHz, 192 kb/s - Украинский дублированный (Cinema Sound Production) Аудио 5: E-AC-3 JOC, 6 ch, 48.0 kHz, 768 kb/s - Английский Субтитры: Русские (Forced, Full), английские (Full, SDH)
[+] MediainfoGeneral Unique ID : 36031549539284668589815806128802313641 (0x1B1B6C8C93C44117D7D012AF6F6D35A9) Complete name : E:Голодные игры - Баллада о змеях и певчих птицах (2023) BDRip 1080p.mkv Format : Matroska Format version : Version 4 File size : 11.5 GiB Duration : 2 h 37 min Overall bit rate : 10.4 Mb/s Frame rate : 23.976 FPS Movie name : Голодные игры: Баллада о змеях и певчих птицах / The Hunger Games: The Ballad Of Songbirds & Snakes (2023) Encoded date : 2024-02-11 19:55:38 UTC Writing application : mkvmerge v68.0.0 ('The Curtain') 64-bit Writing library : libebml v1.4.2 + libmatroska v1.6.4 Cover : Yes Attachments : Cover.jpg Video ID : 1 Format : AVC Format/Info : Advanced Video Codec Format profile : High@L4.1 Format settings : CABAC / 5 Ref Frames Format settings, CABAC : Yes Format settings, Reference fra : 5 frames Codec ID : V_MPEG4/ISO/AVC Duration : 2 h 37 min Bit rate : 7 500 kb/s Width : 1 920 pixels Height : 804 pixels Display aspect ratio : 2.39:1 Frame rate mode : Constant Frame rate : 23.976 (24000/1001) FPS Color space : YUV Chroma subsampling : 4:2:0 Bit depth : 8 bits Scan type : Progressive Bits/(Pixel*Frame) : 0.203 Stream size : 8.22 GiB (72%) Title : The Hunger Games: The Ballad Of Songbirds & Snakes Writing library : x264 core 164 r3164 seleZen Encoding settings : cabac=1 / ref=5 / deblock=1:-2:-2 / analyse=0x3:0x133 / me=umh / subme=11 / psy=1 / psy_rd=1.01:0.03 / mixed_ref=1 / me_range=48 / chroma_me=1 / trellis=2 / 8x8dct=1 / cqm=0 / deadzone=21,11 / fast_pskip=0 / chroma_qp_offset=-3 / threads=25 / lookahead_threads=6 / sliced_threads=0 / nr=0 / decimate=0 / interlaced=0 / bluray_compat=0 / constrained_intra=0 / bframes=10 / b_pyramid=2 / b_adapt=2 / b_bias=0 / direct=3 / weightb=1 / open_gop=0 / weightp=2 / keyint=240 / keyint_min=23 / scenecut=40 / intra_refresh=0 / rc_lookahead=60 / rc=2pass / mbtree=0 / bitrate=7500 / ratetol=1.0 / qcomp=0.60 / qpmin=0 / qpmax=51 / qpstep=4 / cplxblur=20.0 / qblur=0.5 / vbv_maxrate=50000 / vbv_bufsize=62500 / nal_hrd=none / filler=0 / ip_ratio=1.40 / pb_ratio=1.30 / aq=3:0.80 Language : English Default : Yes Forced : No Audio #1 ID : 2 Format : AC-3 Format/Info : Audio Coding 3 Commercial name : Dolby Digital Codec ID : A_AC3 Duration : 2 h 37 min Bit rate mode : Constant Bit rate : 448 kb/s Channel(s) : 6 channels Channel layout : L R C LFE Ls Rs Sampling rate : 48.0 kHz Frame rate : 31.250 FPS (1536 SPF) Compression mode : Lossy Stream size : 504 MiB (4%) Title : Дубляж (Мосфильм-Мастер) Language : Russian Service kind : Complete Main Default : Yes Forced : No Audio #2 ID : 3 Format : E-AC-3 Format/Info : Enhanced AC-3 Commercial name : Dolby Digital Plus Codec ID : A_EAC3 Duration : 2 h 37 min Bit rate mode : Constant Bit rate : 768 kb/s Channel(s) : 6 channels Channel layout : L R C LFE Ls Rs Sampling rate : 48.0 kHz Frame rate : 31.250 FPS (1536 SPF) Compression mode : Lossy Stream size : 863 MiB (7%) Title : MVO (TVShows) Language : Russian Service kind : Complete Main Default : No Forced : No Audio #3 ID : 4 Format : E-AC-3 Format/Info : Enhanced AC-3 Commercial name : Dolby Digital Plus Codec ID : A_EAC3 Duration : 2 h 37 min Bit rate mode : Constant Bit rate : 768 kb/s Channel(s) : 6 channels Channel layout : L R C LFE Ls Rs Sampling rate : 48.0 kHz Frame rate : 31.250 FPS (1536 SPF) Compression mode : Lossy Stream size : 863 MiB (7%) Title : AVO (Юрий Сербин) Language : Russian Service kind : Complete Main Default : No Forced : No Audio #4 ID : 5 Format : AC-3 Format/Info : Audio Coding 3 Commercial name : Dolby Digital Codec ID : A_AC3 Duration : 2 h 37 min Bit rate mode : Constant Bit rate : 192 kb/s Channel(s) : 2 channels Channel layout : L R Sampling rate : 48.0 kHz Frame rate : 31.250 FPS (1536 SPF) Compression mode : Lossy Stream size : 216 MiB (2%) Title : Дубляж (Cinema Sound Production) Language : Ukrainian Service kind : Complete Main Default : No Forced : No Audio #5 ID : 6 Format : E-AC-3 JOC Format/Info : Enhanced AC-3 with Joint Object Coding Commercial name : Dolby Digital Plus with Dolby Atmos Codec ID : A_EAC3 Duration : 2 h 37 min Bit rate mode : Constant Bit rate : 768 kb/s Channel(s) : 6 channels Channel layout : L R C LFE Ls Rs Sampling rate : 48.0 kHz Frame rate : 31.250 FPS (1536 SPF) Compression mode : Lossy Stream size : 863 MiB (7%) Title : Original Language : English Service kind : Complete Main Default : No Forced : No Complexity index : 16 Number of dynamic objects : 15 Bed channel count : 1 channel Bed channel configuration : LFE Text #1 ID : 7 Format : UTF-8 Codec ID : S_TEXT/UTF8 Codec ID/Info : UTF-8 Plain Text Duration : 1 h 55 min Bit rate : 8 b/s Frame rate : 0.020 FPS Count of elements : 136 Stream size : 6.90 KiB (0%) Title : Forced Language : Russian Default : Yes Forced : No Text #2 ID : 8 Format : UTF-8 Codec ID : S_TEXT/UTF8 Codec ID/Info : UTF-8 Plain Text Duration : 2 h 30 min Bit rate : 102 b/s Frame rate : 0.259 FPS Count of elements : 2334 Stream size : 113 KiB (0%) Title : Full (Enigma) Language : Russian Default : No Forced : No Text #3 ID : 9 Format : UTF-8 Codec ID : S_TEXT/UTF8 Codec ID/Info : UTF-8 Plain Text Duration : 2 h 29 min Bit rate : 59 b/s Frame rate : 0.258 FPS Count of elements : 2319 Stream size : 65.3 KiB (0%) Title : Full Language : English Default : No Forced : No Text #4 ID : 10 Format : UTF-8 Codec ID : S_TEXT/UTF8 Codec ID/Info : UTF-8 Plain Text Duration : 2 h 36 min Bit rate : 67 b/s Frame rate : 0.297 FPS Count of elements : 2787 Stream size : 77.3 KiB (0%) Title : SDH Language : English Default : No Forced : No Menu 00:00:00.000 : en:Studio Logos 00:00:35.000 : en:Scene 2 00:01:40.000 : en:Scene 3 00:02:23.000 : en:Scene 4 00:05:06.000 : en:Scene 5 00:05:38.000 : en:Scene 6 00:06:14.000 : en:Scene 7 00:07:32.000 : en:Scene 8 00:12:37.000 : en:Scene 9 00:15:59.000 : en:Scene 10 00:16:51.000 : en:Scene 11 00:17:44.000 : en:Scene 12 00:21:02.000 : en:Scene 13 00:24:23.000 : en:Scene 14 00:27:55.000 : en:Scene 15 00:33:09.000 : en:Scene 16 00:33:52.000 : en:Scene 17 00:34:48.000 : en:Scene 18 00:35:35.000 : en:Scene 19 00:36:42.000 : en:Scene 20 00:40:11.000 : en:Scene 21 00:42:04.000 : en:Scene 22 00:43:50.000 : en:Scene 23 00:46:54.000 : en:Scene 24 00:48:04.000 : en:Scene 25 00:50:38.000 : en:Scene 26 00:50:48.000 : en:Scene 27 00:51:33.000 : en:Scene 28 00:51:43.000 : en:Scene 29 00:54:15.000 : en:Scene 30 00:56:04.000 : en:Scene 31 00:57:05.000 : en:Scene 32 00:57:38.000 : en:Scene 33 01:00:24.000 : en:Scene 34 01:00:35.000 : en:Scene 35 01:01:54.000 : en:Scene 36 01:02:33.000 : en:Scene 37 01:04:06.000 : en:Scene 38 01:07:46.000 : en:Scene 39 01:08:29.000 : en:Scene 40 01:10:01.000 : en:Scene 41 01:11:18.000 : en:Scene 42 01:14:11.000 : en:Scene 43 01:18:30.000 : en:Scene 44 01:19:23.000 : en:Scene 45 01:22:24.000 : en:Scene 46 01:23:20.000 : en:Scene 47 01:26:06.000 : en:Scene 48 01:26:41.000 : en:Scene 49 01:30:37.000 : en:Scene 50 01:34:00.000 : en:Scene 51 01:35:52.000 : en:Scene 52 01:36:22.000 : en:Scene 53 01:38:06.000 : en:Scene 54 01:39:03.000 : en:Scene 55 01:39:56.000 : en:Scene 56 01:40:46.000 : en:Scene 57 01:44:15.000 : en:Scene 58 01:44:37.000 : en:Scene 59 01:47:36.000 : en:Scene 60 01:48:32.000 : en:Scene 61 01:49:26.000 : en:Scene 62 01:52:46.000 : en:Scene 63 01:54:00.000 : en:Scene 64 01:54:56.000 : en:Scene 65 01:57:57.000 : en:Scene 66 01:59:41.000 : en:Scene 67 02:00:50.000 : en:Scene 68 02:01:45.000 : en:Scene 69 02:02:25.000 : en:Scene 70 02:03:24.000 : en:Scene 71 02:04:56.000 : en:Scene 72 02:05:32.000 : en:Scene 73 02:06:26.000 : en:Scene 74 02:07:21.000 : en:Scene 75 02:13:04.000 : en:Scene 76 02:18:45.000 : en:Scene 77 02:20:09.000 : en:Scene 78 02:22:15.000 : en:Scene 79 02:23:01.000 : en:Scene 80 02:26:35.000 : en:Scene 81 02:27:04.000 : en:Scene 82 02:27:09.000 : en:Title Sequence 02:27:24.000 : en:End Credits
[+] Скриншоты

Всего файлов в раздаче: 1 
Голодные игры - Баллада о змеях и певчих птицах (2023) BDRip 1080p.mkv11.46 GB

Похожие раздачи по запросу - Голодные
Вчера magnet Голодные игры: Коллекция / The Hunger Games: Collection (2012-2023) BDRip-HEVC 1080p от RIPS CLUB | D, P, A 42.26 GB ↑ 0 ↓ 0
2024-02-15 magnet Голодные игры: Баллада о змеях и певчих птицах / The Hunger Games: The Ballad of Songbirds & Snakes (2023) BDRip 2160p | 4K | HDR | Dolby Vision Profile 8 | D, P, A 34.92 GB ↑ 1 ↓ 0
2024-02-12 magnet Голодные игры: Баллада о змеях и певчих птицах / The Hunger Games: The Ballad of Songbirds & Snakes (2023) BDRip-AVC от ExKinoRay | D 2.89 GB ↑ 1 ↓ 0
2024-02-09 magnet Голодные игры: Баллада о змеях и певчих птицах / Голодні ігри: Балада про співочих пташок і змій / The Hunger Games: The Ballad of Songbirds & Snakes (2023) BDRemux 1080p | D | UKR 30.12 GB ↑ 0 ↓ 0
2024-02-08 magnet Голодные игры: Баллада о змеях и певчих птицах / The Hunger Games: The Ballad of Songbirds & Snakes (2023) BDRip 1080p от Generalfilm | D 13.54 GB ↑ 0 ↓ 0
2024-02-08 magnet Голодные игры: Баллада о змеях и певчих птицах / The Hunger Games: The Ballad of Songbirds & Snakes (2023) HDRip-AVC от ExKinoRay | D 1.07 GB ↑ 0 ↓ 0
2024-02-07 magnet Голодные игры: Баллада о змеях и певчих птицах / The Hunger Games: The Ballad of Songbirds & Snakes (2023) UHD BDRemux 2160p от селезень | 4K | HDR | Dolby Vision | D 74.27 GB ↑ 0 ↓ 0

Комментарии


Зарегистрируйтесь чтобы добавить комментарий
Торрент клиент
byTorrent - программа для загрузки торрент-файлов.

Скачать byTorrent.exe (1,5 МБ)

Скачать byTorrent.zip (0,6 МБ)

Поддержи torrent.by
российских рублей
(300 российских рублей это 4$)

Обратная связь rss

End game ©