↑↓torrent.by
Поиск
Логин:  Регистрация
Пароль:

За короля! / Vaincre ou mourir [2022, боевик, военный, история, HDRip-AVC] MVO

download Скачать торрент-файл   magnet Магнитная ссылка Размер: 1.45 GB Раздают: 3 Качают: 0 Добавлен: il68k 2024-02-13 01:57
Пиры будут получены из сети DHT
Последний сидер был замечен сегодня в 19:15
За короля! / Vaincre ou mourir

Страна: Франция Жанр: боевик, военный, история Год выпуска: 2022 Продолжительность: 01:36:29
Перевод: Профессиональный (многоголосый закадровый) Субтитры: нет Оригинальная аудиодорожка: нет
Режиссер: Пол Миньо, Венсан Моттез
В ролях: Юго Беккер, Род Парадо, Жиль Коэн, Грегори Фетусси, Жан-Юг Англад, Франсис Рено, Доркас Коппин, Энни Серра, Тадрина Хокинг, Дамьен Жуйро
Описание: Франция, 1793 год. Гнев крестьян, обманутых обещаниями Французской революции, растет. Они призывают Шаретта, бывшего офицера Королевского флота, возглавить восстание. За несколько месяцев моряк становится харизматичным лидером и прекрасным стратегом, увлекая за собой крестьян, женщин, стариков и детей, из которых он создает грозную и неуловимую армию. Борьба за свободу началась...

СЕМПЛ Качество видео: HDRip-AVC Формат видео: MKV Видео: AVC/H.264, 1024x388, 25,000 fps, ~1968 Kbps Аудио: AAC, 2 ch, 48 kHz, 192 Kbps - Русский Релиз от: il68k
[+] MediaInfo
Общее
Уникальный идентификатор                 : 214362752848472498554740425070263475288 (0xA144C3B41F98C26876F523E259811C58)
Полное имя                               : За короля! .mkv
Формат                                   : Matroska
Версия формата                           : Version 4
Размер файла                             : 1,45 Гбайт
Продолжительность                        : 1 ч. 36 м.
Общий поток                              : 2 147 Кбит/сек
Частота кадров                           : 25,000 кадров/сек
Дата кодирования                         : 2023-12-17 07:37:23 UTC
Программа кодирования                    : mkvmerge v50.0.0 ('Awakenings') 64-bit
Библиотека кодирования                   : libebml v1.4.0 + libmatroska v1.6.2
Обложка                                  : Yes
Attachments                              : Cover.jpg

Видео
Идентификатор                            : 1
Формат                                   : AVC
Формат/Информация                        : Advanced Video Codec
Профиль формата                          : High@L4.1
Настройки формата                        : CABAC / 16 Ref Frames
Параметр CABAC формата                   : Да
Параметр RefFrames формата               : 16 кадров
Идентификатор кодека                     : V_MPEG4/ISO/AVC
Продолжительность                        : 1 ч. 36 м.
Битрейт                                  : 1 968 Кбит/сек
Ширина                                   : 1 024 пикселя
Высота                                   : 388 пикселей
Соотношение сторон                       : 2,639
Режим частоты кадров                     : Постоянный
Частота кадров                           : 25,000 кадров/сек
Цветовое пространство                    : YUV
Субдискретизация насыщенности            : 4:2:0
Битовая глубина                          : 8 бит
Тип развёртки                            : Прогрессивная
Бит/(Пиксели*Кадры)                      : 0.198
Размер потока                            : 1,32 Гбайт (91%)
Заголовок                                : Rip by il68k {HandBrake}
Библиотека кодирования                   : x264 core 164 r3107 a8b68ebf
Настройки программы                      : cabac=1 / ref=16 / deblock=1:-3:-3 / analyse=0x3:0x113 / me=umh / subme=11 / psy=1 / psy_rd=1.00:0.15 / mixed_ref=1 / me_range=48 / chroma_me=1 / trellis=2 / 8x8dct=1 / cqm=0 / deadzone=21,11 / fast_pskip=1 / chroma_qp_offset=-3 / threads=8 / lookahead_threads=4 / sliced_threads=0 / nr=0 / decimate=1 / interlaced=0 / bluray_compat=0 / constrained_intra=0 / bframes=16 / b_pyramid=2 / b_adapt=1 / b_bias=0 / direct=3 / weightb=1 / open_gop=0 / weightp=2 / keyint=250 / keyint_min=24 / scenecut=40 / intra_refresh=0 / rc_lookahead=60 / rc=2pass / mbtree=0 / bitrate=1968 / ratetol=1.0 / qcomp=0.60 / qpmin=1 / qpmax=69 / qpstep=4 / cplxblur=20.0 / qblur=0.5 / vbv_maxrate=62500 / vbv_bufsize=78125 / nal_hrd=none / filler=0 / ip_ratio=1.40 / pb_ratio=1.30 / aq=1:1.00
Язык                                     : French
Default                                  : Да
Forced                                   : Нет
Цветовой диапазон                        : Limited
Основные цвета                           : BT.709
Характеристики трансфера                 : BT.709
Коэффициенты матрицы                     : BT.709

Аудио
Идентификатор                            : 2
Формат                                   : AAC LC
Формат/Информация                        : Advanced Audio Codec Low Complexity
Идентификатор кодека                     : A_AAC-2
Продолжительность                        : 1 ч. 36 м.
Битрейт                                  : 192 Кбит/сек
Каналы                                   : 2 канала
Channel layout                           : L R
Частота                                  : 48,0 КГц
Частота кадров                           : 46,875 кадров/сек (1024 SPF)
Метод сжатия                             : С потерями
Размер потока                            : 131 Мбайт (9%)
Заголовок                                : MVO
Язык                                     : Russian
Default                                  : Да
Forced                                   : Нет
[+] Скриншоты

Всего файлов в раздаче: 1 
За короля! [2022].mkv1.45 GB

Похожие раздачи по запросу - короля!
2024-01-28 magnet Меч короля / Bastarden / The Promised Land (2023) HDRip от New-Team | A | Сербин 1К1.46 GB ↑ 0 ↓ 0
2024-01-28 magnet Меч короля / Bastarden / The Promised Land (2023) HDRip-AVC от DoMiNo & селезень | P2, A 2.23 GB ↑ 0 ↓ 0
2024-01-28 magnet Меч короля / Bastarden / The Promised Land (2023) BDRip 1080p от New-Team | P2, A 2К13.66 GB ↑ 0 ↓ 0
2023-12-24 magnet Меч короля / Bastarden / The Promised Land (2023) HDRip-AVC от DoMiNo & селезень | P2 | ViruseProject 1.89 GB ↑ 0 ↓ 0
2023-12-24 magnet Меч короля / Bastarden / The Promised Land (2023) HDRip от New-Team | P2 | ViruseProject 1.46 GB ↑ 0 ↓ 0
2023-12-24 magnet Меч короля / Bastarden / The Promised Land (2023) BDRip 1080p от ExKinoRay | ViruseProject 9.84 GB ↑ 0 ↓ 0
2023-12-24 magnet Меч короля / Bastarden / The Promised Land (2023) BDRip 720p от ExKinoRay | ViruseProject 4.56 GB ↑ 0 ↓ 0

Комментарии


Зарегистрируйтесь чтобы добавить комментарий
Торрент клиент
byTorrent - программа для загрузки торрент-файлов.

Скачать byTorrent.exe (1,5 МБ)

Скачать byTorrent.zip (0,6 МБ)

Поддержи torrent.by
российских рублей
(300 российских рублей это 4$)

Обратная связь rss

End game ©