↑↓torrent.by
Поиск
Логин:  Регистрация
Пароль:

Фантом / Yuryeong / Phantom (2023) BDRip 720p | P

download Скачать торрент-файл   magnet Магнитная ссылка Размер: 6.14 GB Добавлен: 2024-03-06 11:00
Пиры будут получены из сети DHT
Последний сидер был замечен 2024-06-20 15:56
Информация о фильме Название: Фантом Оригинальное название: Yuryeong / Phantom Год выхода: 2023 Жанр: триллер, история, боевик Режиссер: Ли Хэ-ён / Lee Hae-yeong В ролях: Соль Гён-гу, Ли Ха-ни, Пак Со-дам, Пак Хэ-су, Со Хён-у, Ким Дон-хи, Ким Джун-хи, Ко Ин-бом, Чо Ха-сок, Со Джин-вон О фильме: 1933 год, японская оккупация Кореи. После очередного покушения на нового губернатора пятерых подозреваемых в связях с борцами за освобождение привозят в одиноко стоящий отель. Японский офицер знает, что среди них находится шпион, так называемый фантом, которого он обещает вычислить до полудня следующего дня. Напряжение нарастает, присутствующие начинают подозревать друг друга. Страна: Корея Южная Студия: CJ Entertainment, Lamp Продолжительность: 02:12:40 Перевод: Профессиональный (многоголосый закадровый) Кинопоиск HD Видео "перетянуто" из NTSC. Русская аудиодорожка подогнана без пересжатия звука. Файл Качество: BDRip 720p | Delia Исходник: Phantom.2023.MULTi.COMPLETE.FR.BLURAY-Psaro Видео: 1280x536 at 24 fps, MPEG-4 AVC, ~5153 kbps avg Аудио 1: 48 kHz, E-AC3, 3/2 (L,C,R,l,r) + LFE ch, ~448 kbps avg | Russian Аудио 2: 48 kHz, E-AC3, 3/2 (L,C,R,l,r) + LFE ch, ~1024 kbps avg | Korean Субтитры: русские (IVI), английские Семпл
[+] Скриншоты
[+] MediaInfo Общее Уникальный идентификатор : 75936368843137817295894036525517252948 (0x3920D00AA2FF629D2A72C9B4318A2954) Полное имя : Phantom.2023.BDRip.720p-AsiaOne-Delia_Kyle.mkv Формат : Matroska Версия формата : Version 4 Размер файла : 6,14 Гбайт Продолжительность : 2 ч. 12 м. Общий поток : 6 627 Кбит/сек Частота кадров : 24,000 кадра/сек Дата кодирования : 2024-03-05 11:41:47 UTC Программа кодирования : mkvmerge v82.0 ('I'm The President') 64-bit Библиотека кодирования : libebml v1.4.5 + libmatroska v1.7.1 Обложка : Yes Attachments : cover.jpg Видео Идентификатор : 1 Формат : AVC Формат/Информация : Advanced Video Codec Профиль формата : High@L4.1 Настройки формата : CABAC / 12 Ref Frames Параметр CABAC формата : Да Параметр RefFrames формата : 12 кадров Идентификатор кодека : V_MPEG4/ISO/AVC Продолжительность : 2 ч. 12 м. Битрейт : 5 153 Кбит/сек Ширина : 1 280 пикселей Высота : 536 пикселей Соотношение сторон : 2,39:1 Режим частоты кадров : Постоянный Частота кадров : 24,000 кадра/сек Цветовое пространство : YUV Субдискретизация насыщенности : 4:2:0 Битовая глубина : 8 бит Тип развёртки : Прогрессивная Бит/(Пиксели*Кадры) : 0.313 Размер потока : 4,78 Гбайт (78%) Библиотека кодирования : x264 core 164 r3144+47 7d6367c tMod@devel Настройки программы : cabac=1 / ref=12 / deblock=1:-3:-3 / analyse=0x3:0x133 / me=umh / subme=11 / psy=1 / fade_compensate=0.00 / psy_rd=1.00:0.00 / mixed_ref=1 / me_range=32 / chroma_me=1 / trellis=2 / 8x8dct=1 / cqm=0 / deadzone=21,11 / fast_pskip=0 / chroma_qp_offset=-2 / threads=17 / lookahead_threads=4 / sliced_threads=0 / nr=0 / decimate=0 / interlaced=0 / bluray_compat=0 / constrained_intra=0 / fgo=0 / bframes=10 / b_pyramid=2 / b_adapt=2 / b_bias=0 / direct=3 / weightb=1 / open_gop=0 / weightp=2 / keyint=250 / keyint_min=23 / scenecut=40 / intra_refresh=0 / rc=crf / mbtree=0 / crf=16.1000 / qcomp=0.70 / qpmin=0:0:0 / qpmax=69:69:69 / qpstep=4 / ip_ratio=1.30 / pb_ratio=1.20 / aq=3:0.80 / aq-sensitivity=10.00 / aq-factor=1.00:1.00:1.00:1.00 / aq2=0 / aq3=0 / zones=187938,191041,crf=20 Default : Нет Forced : Нет Цветовой диапазон : Limited Основные цвета : BT.709 Характеристики трансфера : BT.709 Коэффициенты матрицы : BT.709 Аудио #1 Идентификатор : 2 Формат : E-AC-3 Формат/Информация : Enhanced AC-3 Коммерческое название : Dolby Digital Plus Идентификатор кодека : A_EAC3 Продолжительность : 2 ч. 12 м. Вид битрейта : Постоянный Битрейт : 448 Кбит/сек Каналы : 6 каналов Channel layout : L R C LFE Ls Rs Частота : 48,0 КГц Частота кадров : 31,250 кадров/сек (1536 SPF) Метод сжатия : С потерями Размер потока : 425 Мбайт (7%) Заголовок : Russian Язык : Russian Service kind : Complete Main Default : Да Forced : Нет Аудио #2 Идентификатор : 3 Формат : E-AC-3 Формат/Информация : Enhanced AC-3 Коммерческое название : Dolby Digital Plus Идентификатор кодека : A_EAC3 Продолжительность : 2 ч. 12 м. Вид битрейта : Постоянный Битрейт : 1 024 Кбит/сек Каналы : 6 каналов Channel layout : L R C LFE Ls Rs Частота : 48,0 КГц Частота кадров : 31,250 кадров/сек (1536 SPF) Метод сжатия : С потерями Размер потока : 972 Мбайт (15%) Заголовок : Korean Язык : Korean Service kind : Complete Main Default : Нет Forced : Нет Текст #1 Идентификатор : 4 Формат : UTF-8 Идентификатор кодека : S_TEXT/UTF8 Идентификатор кодека/Информация : UTF-8 Plain Text Продолжительность : 2 ч. 9 м. Битрейт : 46 бит/сек Частота кадров : 0,116 кадр/сек Count of elements : 900 Размер потока : 44,1 Кбайт (0%) Заголовок : Russian Язык : Russian Default : Нет Forced : Нет Текст #2 Идентификатор : 5 Формат : UTF-8 Идентификатор кодека : S_TEXT/UTF8 Идентификатор кодека/Информация : UTF-8 Plain Text Продолжительность : 2 ч. 9 м. Битрейт : 26 бит/сек Частота кадров : 0,110 кадр/сек Count of elements : 852 Размер потока : 24,9 Кбайт (0%) Заголовок : English Язык : English Default : Нет Forced : Нет Меню 00:00:00.000 : en:Chapter 01 00:13:26.180 : en:Chapter 02 00:23:07.511 : en:Chapter 03 00:33:07.569 : en:Chapter 04 00:44:06.143 : en:Chapter 05 00:56:47.154 : en:Chapter 06 01:06:58.598 : en:Chapter 07 01:20:42.504 : en:Chapter 08 01:30:58.370 : en:Chapter 09 01:42:59.548 : en:Chapter 10 01:55:18.912 : en:Chapter 11 02:03:26.024 : en:Chapter 12 02:12:47.751 : en:Chapter 13
[+] Сравнение с исходником и релизом от msltelSource ~ AsiaOne ~ msltel
[+] Сравнение с тайваньским Blu-ray изданием
[+] x264 logx264 : 1280x536p 0:0 @ 24000/1001 fps (cfr) x264 : color matrix: bt709 x264 : using cpu capabilities: MMX2 SSE2Fast SSSE3 SSE4.2 AVX FMA3 BMI2 AVX2 x264 : profile High, level 4.1, 4:2:0, 8-bit x264 : cabac=1 ref=12 deblock=1:-3:-3 analyse=0x3:0x133 me=umh subme=11 psy=1 fade_compensate=0.00 psy_rd=1.00:0.00 mixed_ref=1 me_range=32 chroma_me=1 trellis=2 8x8dct=1 cqm=0 deadzone=21,11 fast_pskip=0 chroma_qp_offset=-2 threads=17 lookahead_threads=4 sliced_threads=0 nr=0 decimate=0 interlaced=0 bluray_compat=0 constrained_intra=0 fgo=0 bframes=10 b_pyramid=2 b_adapt=2 b_bias=0 direct=3 weightb=1 open_gop=0 weightp=2 keyint=250 keyint_min=23 scenecut=40 intra_refresh=0 rc=crf mbtree=0 crf=16.1000 qcomp=0.70 qpmin=0:0:0 qpmax=69:69:69 qpstep=4 ip_ratio=1.30 pb_ratio=1.20 aq=3:0.80 aq-sensitivity=10.00 aq-factor=1.00:1.00:1.00:1.00 aq2=0 aq3=0 zones=187938,191041,crf=20 x264 : started at Mon Mar 04 18:42:12 2024 x264 : frame I:1507 Avg QP:11.89 size:106510 x264 : frame P:37119 Avg QP:13.56 size: 46717 x264 : frame B:152415 Avg QP:14.28 size: 21210 x264 : consecutive B-frames: 2.0% 1.8% 7.0% 7.2% 11.5% 51.6% 7.3% 1.9% 2.7% 2.6% 4.4% x264 : mb I I16..4: 2.9% 86.6% 10.5% x264 : mb P I16..4: 0.4% 15.0% 1.0% P16..4: 22.6% 34.6% 19.0% 3.9% 0.2% skip: 3.3% x264 : mb B I16..4: 0.0% 2.3% 0.1% B16..8: 31.1% 31.5% 9.2% direct: 7.1% skip:18.7% L0:50.8% L1:38.7% BI:10.4% x264 : 8x8 transform intra:91.7% inter:43.3% x264 : direct mvs spatial:100.0% temporal:0.0% x264 : coded y,uvDC,uvAC intra: 96.3% 95.1% 90.7% inter: 42.6% 33.4% 17.2% x264 : i16 v,h,dc,p: 32% 12% 5% 51% x264 : i8 v,h,dc,ddl,ddr,vr,hd,vl,hu: 13% 8% 14% 9% 12% 11% 11% 11% 12% x264 : i4 v,h,dc,ddl,ddr,vr,hd,vl,hu: 17% 8% 9% 9% 14% 12% 11% 9% 10% x264 : i8c dc,h,v,p: 54% 17% 16% 13% x264 : Weighted P-Frames: Y:11.4% UV:9.1% x264 : ref P L0: 40.6% 5.5% 19.9% 7.9% 7.1% 4.6% 4.6% 2.3% 2.3% 1.7% 1.8% 1.4% 0.2% 0.0% x264 : ref B L0: 58.2% 15.6% 8.8% 4.8% 3.6% 3.0% 2.4% 1.5% 1.3% 0.7% 0.2% x264 : ref B L1: 91.5% 8.5% x264 : kb/s:5147.88 x264 : encoded 191041 frames, 35.51 fps, 5147.88 kb/s, 4889.8 MB x264 : ended at Mon Mar 04 20:11:51 2024 x264 : encoding duration 1:29:39
Релиз от:

Всего файлов в раздаче: 1 
Phantom.2023.BDRip.720p-AsiaOne-Delia_Kyle.mkv6.14 GB

Кто качает (только для создателя раздачи и модераторов): Локальные пиры отсутствуют

Комментарии


Зарегистрируйтесь чтобы добавить комментарий
Торрент клиент
byTorrent - программа для загрузки торрент-файлов.

Скачать byTorrent.exe (1,5 МБ)

Скачать byTorrent.zip (0,6 МБ)

Поддержи torrent.by
российских рублей
(300 российских рублей это 4$)

Обратная связь rss

End game ©