↑↓torrent.by
Поиск
Логин:  Регистрация
Пароль:

Десять дней до весны [S01] (2024) WEB-DL 1080p

download Скачать торрент-файл   magnet Магнитная ссылка Размер: 16.02 GB Добавлен: 2024-03-09 11:00
Пиры будут получены из сети DHT
Последний сидер был замечен вчера в 19:57
Информация о фильме Название: Десять дней до весны Год выхода: 2024 Жанр: Драма, детектив, боевик Режиссёр: Ким Дружинин В ролях: Александр Голубев, Пётр Рыков, Анна Попова, Андрей Соколов, Максим Сапрыкин, Карина Андоленко, Николай Клямчук, Михаил Богдасаров, Никита Аржаненко, Валерий Скорокосов, Руслан Банковский, Глеб Белогорцев, Полина Макналти, Роман Мигурский, Андрей Иванов, Евгений Михайленко, Дмитрий Петряев, Сергей Николаев, Артур Харитоненко, Василий Копейкин, Николай Иванов, Дмитрий Гудим, Александр Миловидов, Фёдор Ивицкий, Максим Саетгараев, Даниил Кокин, Михаил Демьяненко, Павел Волков, Денис Волков, Даниил Шелудько, Жорж Девдариани, Евгений Горбачёв, Андрей Гончаренко, Надежда Пигина, Александр Большаков, Вячеслав Григорьев, Алексей Лысенко, Андрей Полищук, Лиана Гриба, Павел Юлку, Иван Стебунов, Александр Доронин, Ангелина Селезнёва, Илья Алексеев, Виктория Бычкова, Кирилл Букин, Евгений Харланов, Юрий Батурин, Рамиль Сабитов, Дмитрий Лавров, Константин Федин, Руслан Кацагаджиев, Иван Трус, Владимир Стержаков, Антон Пулит, Ника Ивашкевич, Захар Черезов, Дмитрий Могучев, Богдан Хорохорин, Сергей Уманов, Александр Иванов, Сергей Паршин, Елена Цыплакова, Павел Давыдов, Мария Жиганова, Николай Галлямов, Ольга Любимова, Сергей Колос, Дмитрий Мурашев, Василий Щипицын, Анна Дзыгало О фильме: В семье Жилиных потеря. Братья — замкомандира симферопольского «Беркута» Николай и московский хирург Андрей — и их сестра, преподаватель симферопольской гимназии Наталья, приезжают на похороны отца. Много лет назад, в 90-х, обстоятельства развели братьев и сестру по разным городам и даже странам. Между ними разгорается конфликт по поводу дома на берегу моря. Страна: Россия Студия: Кинокомпания Гамма, Институт развития интернета, Телекомпания НТВ, Военкино Продолжительность: 11 х ~ 00:50:00 Язык: Русский Премьера в Росcии: 08 марта 2024 года Цифровой релиз: 08 марта 2024 года Примечание: Без рекламы Возраст: 16+ Файл Формат: MKV Качество: WEB-DL 1080p Видео: MPEG-4 AVC, ~ 4000 Кбит/с, 1920x1080@1920x816 Звук: AC3, 2 ch, 192 Кбит/с Субтитры: Отсутствуют Семпл
[+] Скриншоты
[+] MIОбщее Уникальный идентификатор : 54511695579061702738977681267228436010 (0x2902921850686E0F069DAE199ABC662A) Полное имя : C:UsersAdminDesktopDesyat.dnej.do.vesny.S01.2024.WEB-DL.1080pDesyat.dnej.do.vesny.S01.E01.2024.WEB-DL.1080p.mkv Формат : Matroska Версия формата : Version 4 Размер файла : 1,38 Гбайт Продолжительность : 48 м. 2 с. Режим общего битрейта : Постоянный Общий поток : 4 123 Кбит/сек Название фильма : Desyat.dnej.do.vesny.S01.E01.2024.WEB-DL.1080p Дата кодирования : UTC 2024-03-08 22:38:35 Программа кодирования : mkvmerge v82.0 ('I'm The President') 64-bit Библиотека кодирования : libebml v1.4.5 + libmatroska v1.7.1 Attachments : poster.jpg Видео Идентификатор : 1 Формат : AVC Формат/Информация : Advanced Video Codec Профиль формата : High@L4 Настройки формата : CABAC / 3 Ref Frames Параметр CABAC формата : Да Параметр RefFrames формата : 3 кадра Идентификатор кодека : V_MPEG4/ISO/AVC Продолжительность : 48 м. 2 с. Вид битрейта : Постоянный Битрейт : 4 000 Кбит/сек Ширина : 1 920 пикселей Высота : 1 080 пикселей Соотношение сторон : 2,40:1 Режим частоты кадров : Постоянный Частота кадров : 25,000 кадров/сек Цветовое пространство : YUV Субдискретизация насыщенности : 4:2:0 Битовая глубина : 8 бит Тип развёртки : Прогрессивная Бит/(Пиксели*Кадры) : 0.077 Размер потока : 1,30 Гбайт (94%) Default : Да Forced : Нет Цветовой диапазон : Limited Основные цвета : BT.709 Коэффициенты матрицы : BT.709 Аудио Идентификатор : 2 Формат : AC-3 Формат/Информация : Audio Coding 3 Коммерческое название : Dolby Digital Идентификатор кодека : A_AC3 Продолжительность : 48 м. 2 с. Вид битрейта : Постоянный Битрейт : 192 Кбит/сек Каналы : 2 канала Channel layout : L R Частота : 48,0 КГц Частота кадров : 31,250 кадров/сек (1536 SPF) Метод сжатия : С потерями Размер потока : 66,0 Мбайт (5%) Заголовок : Язык : Russian Service kind : Complete Main Default : Да Forced : Нет

Всего файлов в раздаче: 11 
Desyat.dnej.do.vesny.S01.E01.2024.WEB-DL.1080p.mkv1.38 GB
Desyat.dnej.do.vesny.S01.E02.2024.WEB-DL.1080p.mkv1.47 GB
Desyat.dnej.do.vesny.S01.E03.2024.WEB-DL.1080p.mkv1.45 GB
Desyat.dnej.do.vesny.S01.E04.2024.WEB-DL.1080p.mkv1.43 GB
Desyat.dnej.do.vesny.S01.E05.2024.WEB-DL.1080p.mkv1.50 GB
Desyat.dnej.do.vesny.S01.E06.2024.WEB-DL.1080p.mkv1.38 GB
Desyat.dnej.do.vesny.S01.E07.2024.WEB-DL.1080p.mkv1.39 GB
Desyat.dnej.do.vesny.S01.E08.2024.WEB-DL.1080p.mkv1.38 GB
Desyat.dnej.do.vesny.S01.E09.2024.WEB-DL.1080p.mkv1.45 GB
Desyat.dnej.do.vesny.S01.E10.2024.WEB-DL.1080p.mkv1.56 GB
Показать все файлы

Похожие раздачи по запросу - Десять
2024-06-18 magnet Десять негритят (1987) WEB-DLRip 720p от DoMiNo & селезень 2.43 GB ↑ 0 ↓ 0
2024-06-16 magnet Десять негритят (1987) WEB-DLRip 1080p 7.91 GB ↑ 0 ↓ 0
2024-03-11 magnet Десять дней до весны [S01] (2024) WEB-DLRip-AVC от Files-x 6.92 GB ↑ 1 ↓ 0
2024-03-09 magnet Десять дней до весны / Серии: 1-11 из 11 [2023, драма, детектив, боевик, WEBRip-AVC] от Aleksan55 6.94 GB ↑ 0 ↓ 0
2024-03-09 magnet Десять дней до весны [S01] (2024) WEB-DLRip 7.15 GB ↑ 1 ↓ 0

Кто качает (только для создателя раздачи и модераторов): Локальные пиры отсутствуют

Комментарии


Зарегистрируйтесь чтобы добавить комментарий
Торрент клиент
byTorrent - программа для загрузки торрент-файлов.

Скачать byTorrent.exe (1,5 МБ)

Скачать byTorrent.zip (0,6 МБ)

Поддержи torrent.by
российских рублей
(300 российских рублей это 4$)

Обратная связь rss

End game ©