↑↓torrent.by
Поиск
Логин:  Регистрация
Пароль:

Код 8: Часть 2 / Code 8: Part II (2024) WEB-DL 1080p от ExKinoRay | P | Red Head Sound

download Скачать торрент-файл   magnet Магнитная ссылка Размер: 4.11 GB Раздают: 3 Качают: 0 Добавлен: il68k 2024-03-09 18:41
Пиры будут получены из сети DHT
Последний сидер был замечен сегодня в 08:21
Код 8: Часть 2 / Code 8: Part II (2024) WEB-DL 1080p
Производство: Канада, США / Collective Pictures, Colony Pictures Жанр: фантастика, боевик, драма Режиссер: Джефф Чан Актеры: Робби Амелл, Стивен Амелл, Сирена Гуламгаус, Джин Юн, Аарон Эйбрамс, Мо Джуди-Ламур, Алекс Маллари-мл., Джессика Ален, Натали Ликонти, Джейн Моффат, Сарена Пармар, Акиэль Жюльен, Ннека Эллиот, Сэмми Азеро, Альтаир Винсент Описание: Люди со сверхспособностями всё так же подвергаются дискриминации и вынуждены зарабатывать нелегально, чтобы сводить концы с концами. Обладающая необычной формой телекинеза девочка Павани становится невольной свидетельницей убийства старшего брата робопсом — одной из «безопасных» для людей машин, недавно поступивших на вооружение полиции. Спасаясь от коррумпированных копов, Павани встречает Коннора, который только что вышел после пятилетней отсидки. Релиз от: ExKinoRay Продолжительность: 01:40:27 Качество видео: WEB-DL 1800p Перевод: Профессиональный (многоголосый) | Red Head Sound Язык озвучки: Русский, Английский Субтитры: Русские (Full), Английские (Full, SDH) Видео: AVC/H.264, 1920x1080, ~5000 Kbps Аудио 1: AC3, 2 ch, 192 Kbps - русский Аудио 2: E-AC3 JOC, 6 ch, 768 Kbps - английский
[+] MediaInfo
Общее
Полное имя                               : Code.8.Part.II.2024.WEB-DL.1080p.ExKinoRay.mkv
Формат                                   : Matroska
Версия формата                           : Version 4
Размер файла                             : 4,11 Гбайт
Продолжительность                        : 1 ч. 40 м.
Режим общего битрейта                    : Переменный
Общий поток                              : 5 861 Кбит/сек
Частота кадров                           : 24,000 кадра/сек
Дата кодирования                         : 2024-03-09 12:22:00 UTC
Программа кодирования                    : mkvmerge v56.1.0 ('My Friend') 64-bit
Библиотека кодирования                   : libebml v1.4.2 + libmatroska v1.6.4

Видео
Идентификатор                            : 1
Формат                                   : AVC
Формат/Информация                        : Advanced Video Codec
Профиль формата                          : Main@L4
Настройки формата                        : CABAC / 3 Ref Frames
Параметр CABAC формата                   : Да
Параметр RefFrames формата               : 3 кадра
Идентификатор кодека                     : V_MPEG4/ISO/AVC
Продолжительность                        : 1 ч. 40 м.
Вид битрейта                             : Переменный
Битрейт                                  : 5 000 Кбит/сек
Максимальный битрейт                     : 7 500 Кбит/сек
Ширина                                   : 1 920 пикселей
Высота                                   : 1 080 пикселей
Соотношение сторон                       : 16:9
Режим частоты кадров                     : Постоянный
Частота кадров                           : 24,000 кадра/сек
Цветовое пространство                    : YUV
Субдискретизация насыщенности            : 4:2:0
Битовая глубина                          : 8 бит
Тип развёртки                            : Прогрессивная
Бит/(Пиксели*Кадры)                      : 0.100
Размер потока                            : 3,44 Гбайт (84%)
Библиотека кодирования                   : x264 core 148 r2727 7d026e8
Настройки программы                      : cabac=1 / ref=3 / deblock=1:0:0 / analyse=0x1:0x111 / me=umh / subme=10 / psy=1 / psy_rd=1.00:0.00 / mixed_ref=1 / me_range=24 / chroma_me=1 / trellis=2 / 8x8dct=0 / cqm=0 / deadzone=21,11 / fast_pskip=1 / chroma_qp_offset=-2 / threads=6 / lookahead_threads=1 / sliced_threads=0 / nr=0 / decimate=1 / interlaced=0 / bluray_compat=0 / stitchable=1 / constrained_intra=0 / bframes=2 / b_pyramid=0 / b_adapt=2 / b_bias=0 / direct=3 / weightb=1 / open_gop=0 / weightp=2 / keyint=240 / keyint_min=121 / scenecut=0 / intra_refresh=0 / rc_lookahead=48 / rc=2pass / mbtree=1 / bitrate=5000 / ratetol=1.0 / qcomp=0.50 / qpmin=6 / qpmax=51 / qpstep=4 / cplxblur=20.0 / qblur=0.5 / vbv_maxrate=7500 / vbv_bufsize=10000 / nal_hrd=vbr / filler=0 / ip_ratio=1.40 / aq=1:1.00
Язык                                     : English
Default                                  : Да
Forced                                   : Нет

Аудио #1
Идентификатор                            : 2
Формат                                   : AC-3
Формат/Информация                        : Audio Coding 3
Коммерческое название                    : Dolby Digital
Идентификатор кодека                     : A_AC3
Продолжительность                        : 1 ч. 40 м.
Вид битрейта                             : Постоянный
Битрейт                                  : 192 Кбит/сек
Каналы                                   : 2 канала
Channel layout                           : L R
Частота                                  : 48,0 КГц
Частота кадров                           : 31,250 кадров/сек (1536 SPF)
Метод сжатия                             : С потерями
Размер потока                            : 138 Мбайт (3%)
Язык                                     : Russian
Service kind                             : Complete Main
Default                                  : Да
Forced                                   : Нет

Аудио #2
Идентификатор                            : 3
Формат                                   : E-AC-3 JOC
Формат/Информация                        : Enhanced AC-3 with Joint Object Coding
Коммерческое название                    : Dolby Digital Plus with Dolby Atmos
Идентификатор кодека                     : A_EAC3
Продолжительность                        : 1 ч. 40 м.
Вид битрейта                             : Постоянный
Битрейт                                  : 768 Кбит/сек
Каналы                                   : 6 каналов
Channel layout                           : L R C LFE Ls Rs
Частота                                  : 48,0 КГц
Частота кадров                           : 31,250 кадров/сек (1536 SPF)
Метод сжатия                             : С потерями
Размер потока                            : 552 Мбайт (13%)
Язык                                     : English
Service kind                             : Complete Main
Default                                  : Нет
Forced                                   : Нет
Complexity index                         : 16
Number of dynamic objects                : 15
Bed channel count                        : 1 канал
Bed channel configuration                : LFE

Текст #1
Идентификатор                            : 4
Формат                                   : UTF-8
Идентификатор кодека                     : S_TEXT/UTF8
Идентификатор кодека/Информация          : UTF-8 Plain Text
Продолжительность                        : 1 ч. 37 м.
Битрейт                                  : 59 бит/сек
Частота кадров                           : 0,165 кадр/сек
Count of elements                        : 969
Размер потока                            : 42,5 Кбайт (0%)
Язык                                     : Russian
Default                                  : Нет
Forced                                   : Нет

Текст #2
Идентификатор                            : 5
Формат                                   : UTF-8
Идентификатор кодека                     : S_TEXT/UTF8
Идентификатор кодека/Информация          : UTF-8 Plain Text
Продолжительность                        : 1 ч. 30 м.
Битрейт                                  : 46 бит/сек
Частота кадров                           : 0,180 кадр/сек
Count of elements                        : 984
Размер потока                            : 30,7 Кбайт (0%)
Язык                                     : English
Default                                  : Нет
Forced                                   : Нет

Текст #3
Идентификатор                            : 6
Формат                                   : UTF-8
Идентификатор кодека                     : S_TEXT/UTF8
Идентификатор кодека/Информация          : UTF-8 Plain Text
Продолжительность                        : 1 ч. 31 м.
Битрейт                                  : 57 бит/сек
Частота кадров                           : 0,233 кадр/сек
Count of elements                        : 1274
Размер потока                            : 38,6 Кбайт (0%)
Заголовок                                : SDH
Язык                                     : English
Default                                  : Нет
Forced                                   : Нет
[+] Скриншоты

Всего файлов в раздаче: 1 
Code.8.Part.II.2024.WEB-DL.1080p.ExKinoRay.mkv4.11 GB

Похожие раздачи по запросу - Код 8
2024-05-27 magnet Код-дракона - От заката до рассвета (2024) FLAC 253.77 MB ↑ 0 ↓ 0
2024-04-23 magnet Код 8: Часть 2 / Code 8: Part II (2024) WEB-DL 2160p | 4K | SDR | D, P, P2, A 14.70 GB ↑ 1 ↓ 0
2024-03-26 magnet Код 8: Часть 2 / Code 8: Part II (2024) WEB-DLRip от MegaPeer | D | TVShows 1.46 GB ↑ 0 ↓ 0
2024-03-10 magnet Код 8: Часть 2 / Code 8: Part II (2024) WEB-DLRip-AVC от DoMiNo & селезень | P, P2 | Red Head Sound, ViruseProject 1.54 GB ↑ 0 ↓ 0
2024-03-01 magnet Код 8 / Code 8 (2019) BDRip-AVC от DoMiNo & селезень | iTunes 1.71 GB ↑ 0 ↓ 0
2024-02-29 magnet Код 8: Часть 2 / Code 8: Part II (2024) WEB-DLRip | L2 | Zetflix 1.46 GB ↑ 0 ↓ 0

Кто качает (только для создателя раздачи и модераторов):
ПользовательIP:портОтдалПринялОстатокСидируетТоррент клиентОбновился
1 Аноним 178.196.150.182:40138 0.00 B 0.00 B 0.00 B да -ZO3006- 08:13 2024-06-22
2 Аноним 185.3.182.119:50470 0.00 B 0.00 B 0.00 B да -ZO3006- 08:15 2024-06-22
3 Аноним 31.170.190.190:44290 0.00 B 0.00 B 0.00 B да -ZO3006- 08:21 2024-06-22

Комментарии


Зарегистрируйтесь чтобы добавить комментарий
Торрент клиент
byTorrent - программа для загрузки торрент-файлов.

Скачать byTorrent.exe (1,5 МБ)

Скачать byTorrent.zip (0,6 МБ)

Поддержи torrent.by
российских рублей
(300 российских рублей это 4$)

Обратная связь rss

End game ©