↑↓torrent.by
Поиск
Логин:  Регистрация
Пароль:

Код 8: Часть 2 / Code 8: Part II (2024) WEB-DLRip-AVC от DoMiNo & селезень | P, P2 | Red Head Sound, ViruseProject

download Скачать торрент-файл   magnet Магнитная ссылка Размер: 1.54 GB Добавлен: 2024-03-10 17:00
Пиры будут получены из сети DHT
Последний сидер был замечен 2024-05-30 15:14
Информация о фильме Название: Код 8: Часть 2 Оригинальное название: Code 8: Part II Год выхода: 2024 Жанр: фантастика, боевик Режиссер: Джефф Чан В ролях: Робби Амелл, Стивен Амелл, Аарон Абрамс, Джин Юн, Сирена Гуламгаус, Алекс Маллари мл., Натали Ликонти, Серена Пармар, Мо Жюди-Ламур О фильме: Девушка с аномальными способностями случайно становится невольной свидетельницей жестокого убийства своего родного брата. Стремясь воздать убийцам по заслугам, она обращается за помощью к бывшему заключенному и его подельнику. Объединив силы, они быстро выходя на след убийц — коррумпированных полицейских, которые, чтобы защитить себя от разоблачения, используют самые совершенные роботизированные технологии. Страна: США, Канада Продолжительность: 01:40:27 Перевод 1: Профессиональный (многоголосый, закадровый) | Red Head Sound Перевод 2: Профессиональный (двухголосый, закадровый) | ViruseProject 18+ Субтитры: Русские (Full), Английские (Full, SDH) Файл Формат: Matroska Качество: WEB-DLRip-AVC | NF Видео: 1024x428 at 24.000 fps, x264@L4.1, ~1553 kbps Аудио 1: AC3, 2 ch, ~192 kbps - | Русский | | Red Head Sound Аудио 2: AC3, 6 ch, ~448 kbps - | Русский | | ViruseProject Формат субтитров: softsub (SRT) ***Рип от: -=DoMiNo=-
[+] M/IGeneral Unique ID : 119102183802668811275503797009753664876 (0x599A3F087436E0D9E2E36149CE916D6C) Complete name : I:Code.8.Part-2.2024.WEB-DLRip.x264.seleZen.mkv Format : Matroska Format version : Version 4 File size : 1.54 GiB Duration : 1 h 40 min Overall bit rate : 2 196 kb/s Frame rate : 24.000 FPS Movie name : Code.8.Part-2.2024.WEB-DLRip.x264.seleZen Encoded date : 2024-03-10 08:11:00 UTC Writing application : mkvmerge v82.0 ('I'm The President') 64-bit Writing library : libebml v1.4.5 + libmatroska v1.7.1 Cover : Yes Attachments : cover.jpg / small_cover.jpg Video ID : 1 Format : AVC Format/Info : Advanced Video Codec Format profile : High@L4.1 Format settings : CABAC / 14 Ref Frames Format settings, CABAC : Yes Format settings, Reference : 14 frames Codec ID : V_MPEG4/ISO/AVC Duration : 1 h 40 min Bit rate : 1 553 kb/s Width : 1 024 pixels Height : 428 pixels Display aspect ratio : 2.40:1 Frame rate mode : Constant Frame rate : 24.000 FPS Color space : YUV Chroma subsampling : 4:2:0 Bit depth : 8 bits Scan type : Progressive Bits/(Pixel*Frame) : 0.148 Stream size : 1.09 GiB (71%) Title : -=DoMiNo=- Writing library : x264 core 164 r3179+58M 2d8d988 t_mod_New Encoding settings : cabac=1 / ref=14 / deblock=1:-2:-1 / analyse=0x3:0x133 / me=umh / subme=10 / psy=1 / fade_compensate=0.00 / psy_rd=1.00:0.15 / mixed_ref=1 / me_range=32 / chroma_me=1 / trellis=2 / 8x8dct=1 / cqm=0 / deadzone=21,11 / fast_pskip=0 / chroma_qp_offset=-3 / threads=13 / lookahead_threads=3 / sliced_threads=0 / nr=0 / decimate=0 / interlaced=0 / bluray_compat=0 / constrained_intra=0 / fgo=0 / bframes=10 / b_pyramid=2 / b_adapt=2 / b_bias=0 / direct=1 / weightb=1 / open_gop=0 / weightp=2 / keyint=250 / keyint_min=24 / scenecut=40 / intra_refresh=0 / rc_lookahead=60 / rc=crf / mbtree=0 / crf=18.0000 / qcomp=0.60 / qpmin=0:0:0 / qpmax=69:69:69 / qpstep=4 / vbv_maxrate=50000 / vbv_bufsize=62500 / crf_max=0.0 / nal_hrd=none / filler=0 / ip_ratio=1.40 / pb_ratio=1.30 / aq=1:0.90 / aq-sensitivity=10.00 / aq-factor=1.00:1.00:1.00 / aq2=0 / aq3=0 Language : English Default : Yes Forced : No Audio #1 ID : 2 Format : AC-3 Format/Info : Audio Coding 3 Commercial name : Dolby Digital Codec ID : A_AC3 Duration : 1 h 40 min Bit rate mode : Constant Bit rate : 192 kb/s Channel(s) : 2 channels Channel layout : L R Sampling rate : 48.0 kHz Frame rate : 31.250 FPS (1536 SPF) Compression mode : Lossy Stream size : 138 MiB (9%) Title : MVO -Red Head Sound Language : Russian Service kind : Complete Main Default : Yes Forced : No Audio #2 ID : 3 Format : AC-3 Format/Info : Audio Coding 3 Commercial name : Dolby Digital Codec ID : A_AC3 Duration : 1 h 40 min Bit rate mode : Constant Bit rate : 448 kb/s Channel(s) : 6 channels Channel layout : L R C LFE Ls Rs Sampling rate : 48.0 kHz Frame rate : 31.250 FPS (1536 SPF) Compression mode : Lossy Stream size : 322 MiB (20%) Title : ViruseProject Language : Russian Service kind : Complete Main Default : No Forced : No Text #1 ID : 4 Format : UTF-8 Codec ID : S_TEXT/UTF8 Codec ID/Info : UTF-8 Plain Text Duration : 1 h 37 min Bit rate : 59 b/s Frame rate : 0.165 FPS Count of elements : 969 Stream size : 42.5 KiB (0%) Language : Russian Default : No Forced : No Text #2 ID : 5 Format : UTF-8 Codec ID : S_TEXT/UTF8 Codec ID/Info : UTF-8 Plain Text Duration : 1 h 30 min Bit rate : 46 b/s Frame rate : 0.180 FPS Count of elements : 984 Stream size : 30.7 KiB (0%) Language : English Default : No Forced : No Text #3 ID : 6 Format : UTF-8 Codec ID : S_TEXT/UTF8 Codec ID/Info : UTF-8 Plain Text Duration : 1 h 31 min Bit rate : 57 b/s Frame rate : 0.233 FPS Count of elements : 1274 Stream size : 38.6 KiB (0%) Title : SDH Language : English Default : No Forced : No
Релиз: Присоединяйся к: Кликай на баннеры.

Всего файлов в раздаче: 1 
Code.8.Part-2.2024.WEB-DLRip.x264.seleZen.mkv1.54 GB

Похожие раздачи по запросу - Код
2024-05-27 magnet Код-дракона - От заката до рассвета (2024) FLAC 253.77 MB ↑ 0 ↓ 0
2024-04-23 magnet Код 8: Часть 2 / Code 8: Part II (2024) WEB-DL 2160p | 4K | SDR | D, P, P2, A 14.70 GB ↑ 1 ↓ 0
2024-03-26 magnet Код 8: Часть 2 / Code 8: Part II (2024) WEB-DLRip от MegaPeer | D | TVShows 1.46 GB ↑ 0 ↓ 0
2024-03-09 magnet Код 8: Часть 2 / Code 8: Part II (2024) WEB-DL 1080p от ExKinoRay | P | Red Head Sound 4.11 GB ↑ 3 ↓ 0
2024-03-01 magnet Код 8 / Code 8 (2019) BDRip-AVC от DoMiNo & селезень | iTunes 1.71 GB ↑ 0 ↓ 0
2024-02-29 magnet Код 8: Часть 2 / Code 8: Part II (2024) WEB-DLRip | L2 | Zetflix 1.46 GB ↑ 0 ↓ 0

Кто качает (только для создателя раздачи и модераторов): Локальные пиры отсутствуют

Комментарии


Зарегистрируйтесь чтобы добавить комментарий
Торрент клиент
byTorrent - программа для загрузки торрент-файлов.

Скачать byTorrent.exe (1,5 МБ)

Скачать byTorrent.zip (0,6 МБ)

Поддержи torrent.by
российских рублей
(300 российских рублей это 4$)

Обратная связь rss

End game ©