↑↓torrent.by
Поиск
Логин:  Регистрация
Пароль:

Ночной сторож: Демоны передаются по наследству / Nattevagten - Dæmoner går i arv / Nightwatch: Demons Are Forever (2023) BDRip 1080p от селезень | P2 | ViruseProject

download Скачать торрент-файл   magnet Магнитная ссылка Размер: 9.27 GB Добавлен: 2024-03-16 05:00
Пиры будут получены из сети DHT
Последний сидер был замечен 2024-05-25 14:17
Информация о фильме Название: Ночной сторож: Демоны передаются по наследству Оригинальное название: Nattevagten - Dæmoner går i arv Год выхода: 2023 Жанр: ужасы, триллер, детектив Режиссер: Уле Борнедаль В ролях: Фанни Борнедаль, Николай Костер-Вальдау, Алекс Хег Андерсен, Сара Виктория Бьеррегор Кристенсен, Ким Бодния, Вибеке Хаструп, Pelle Emil Hebsgaard, Casper Kjær Jensen, Александр Беранг Кешткар, Bodil Lassen и т.д. О фильме: Эмма, студентка медфака, устраивается на работу ночным сторожем в Институт судебно-медицинской экспертизы в то самое место, где серийный убийца-психопат комиссар Вёрмер 30 лет назад пытался убить ее родителей. С тех пор их преследовала память о той ночи, и Эмма тоже унаследовала травму своих родителей. Молодая девушка решает выяснить, что на самом деле тогда произошло. Встреча с преступником запускает цепь судьбоносных событий. Начинается кровавая месть всем тем, кто в свое время решил судьбу Вермера. "Ночной сторож: Демоны передаются по наследству" продолжение фильма "Ночной сторож" 1994 года. Страна: Дания Продолжительность: 01:57:44 Перевод: Профессиональный (двухголосый, закадровый) | ViruseProject 18 + Субтитры: Датские, финские, норвежские, шведские Файл Формат: Matroska Качество: BDRip 1080p Видео: 1920x804 at 24.000 fps, x264@L4.1, ~10000 kbps Аудио 1: AC3, 6 ch, ~640 kbps - | Русский | Аудио 2: AC3, 6 ch, ~640 kbps - | Датский | Формат субтитров: softsub (SRT)
[+] M/IGeneral Unique ID : 128955601825837763454569695176645966790 (0x6103F20CA268D0B2AE36E08D59747BC6) Complete name : H:VideoHNightwatch.Demons.Are.Forever.2023.DVO.BDRip.1080p.x264.seleZen.mkv Format : Matroska Format version : Version 4 File size : 9.27 GiB Duration : 1 h 57 min Overall bit rate : 11.3 Mb/s Frame rate : 24.000 FPS Movie name : Nightwatch.Demons.Are.Forever.2023.seleZen Encoded date : 2024-03-15 17:43:51 UTC Writing application : mkvmerge v80.0 ('Roundabout') 64-bit Writing library : libebml v1.4.4 + libmatroska v1.7.1 Cover : Yes Attachments : cover.jpg / small_cover.jpg Video ID : 1 Format : AVC Format/Info : Advanced Video Codec Format profile : High@L4.1 Format settings : CABAC / 5 Ref Frames Format settings, CABAC : Yes Format settings, Reference : 5 frames Codec ID : V_MPEG4/ISO/AVC Duration : 1 h 57 min Bit rate : 10 000 kb/s Width : 1 920 pixels Height : 804 pixels Display aspect ratio : 2.39:1 Frame rate mode : Constant Frame rate : 24.000 FPS Color space : YUV Chroma subsampling : 4:2:0 Bit depth : 8 bits Scan type : Progressive Bits/(Pixel*Frame) : 0.270 Stream size : 8.22 GiB (89%) Writing library : x264 core 164 r3164 seleZen Encoding settings : cabac=1 / ref=5 / deblock=1:-2:-2 / analyse=0x3:0x133 / me=umh / subme=11 / psy=1 / psy_rd=1.02:0.01 / mixed_ref=1 / me_range=48 / chroma_me=1 / trellis=2 / 8x8dct=1 / cqm=0 / deadzone=21,11 / fast_pskip=0 / chroma_qp_offset=-3 / threads=25 / lookahead_threads=6 / sliced_threads=0 / nr=0 / decimate=0 / interlaced=0 / bluray_compat=0 / constrained_intra=0 / bframes=10 / b_pyramid=2 / b_adapt=2 / b_bias=0 / direct=3 / weightb=1 / open_gop=0 / weightp=2 / keyint=240 / keyint_min=23 / scenecut=40 / intra_refresh=0 / rc_lookahead=60 / rc=2pass / mbtree=0 / bitrate=10000 / ratetol=1.0 / qcomp=0.60 / qpmin=0 / qpmax=51 / qpstep=4 / cplxblur=20.0 / qblur=0.5 / vbv_maxrate=50000 / vbv_bufsize=62500 / nal_hrd=none / filler=0 / ip_ratio=1.40 / pb_ratio=1.30 / aq=3:0.80 Language : English Default : Yes Forced : No Audio #1 ID : 2 Format : AC-3 Format/Info : Audio Coding 3 Commercial name : Dolby Digital Codec ID : A_AC3 Duration : 1 h 57 min Bit rate mode : Constant Bit rate : 640 kb/s Channel(s) : 6 channels Channel layout : L R C LFE Ls Rs Sampling rate : 48.0 kHz Frame rate : 31.250 FPS (1536 SPF) Compression mode : Lossy Stream size : 539 MiB (6%) Title : ViruseProject Language : Russian Service kind : Complete Main Default : Yes Forced : No Audio #2 ID : 3 Format : AC-3 Format/Info : Audio Coding 3 Commercial name : Dolby Digital Codec ID : A_AC3 Duration : 1 h 57 min Bit rate mode : Constant Bit rate : 640 kb/s Channel(s) : 6 channels Channel layout : L R C LFE Ls Rs Sampling rate : 48.0 kHz Frame rate : 31.250 FPS (1536 SPF) Compression mode : Lossy Stream size : 539 MiB (6%) Language : Danish Service kind : Complete Main Default : No Forced : No Text #1 ID : 4 Format : UTF-8 Codec ID : S_TEXT/UTF8 Codec ID/Info : UTF-8 Plain Text Duration : 1 h 48 min Bit rate : 0 b/s Frame rate : 0.001 FPS Count of elements : 4 Stream size : 134 Bytes (0%) Title : Forced Language : Danish Default : No Forced : No Text #2 ID : 5 Format : UTF-8 Codec ID : S_TEXT/UTF8 Codec ID/Info : UTF-8 Plain Text Duration : 1 h 57 min Bit rate : 45 b/s Frame rate : 0.149 FPS Count of elements : 1049 Stream size : 39.2 KiB (0%) Language : Danish Default : No Forced : No Text #3 ID : 6 Format : UTF-8 Codec ID : S_TEXT/UTF8 Codec ID/Info : UTF-8 Plain Text Duration : 1 h 57 min Bit rate : 43 b/s Frame rate : 0.143 FPS Count of elements : 1010 Stream size : 37.1 KiB (0%) Language : Finnish Default : No Forced : No Text #4 ID : 7 Format : UTF-8 Codec ID : S_TEXT/UTF8 Codec ID/Info : UTF-8 Plain Text Duration : 1 h 57 min Bit rate : 43 b/s Frame rate : 0.143 FPS Count of elements : 1010 Stream size : 37.0 KiB (0%) Language : Norwegian Default : No Forced : No Text #5 ID : 8 Format : UTF-8 Codec ID : S_TEXT/UTF8 Codec ID/Info : UTF-8 Plain Text Duration : 1 h 57 min Bit rate : 44 b/s Frame rate : 0.143 FPS Count of elements : 1010 Stream size : 38.6 KiB (0%) Language : Swedish Default : No Forced : No Menu 00:00:00.000 : en:Chapter 01 00:15:47.666 : en:Chapter 02 00:30:31.833 : en:Chapter 03 00:50:41.791 : en:Chapter 04 01:03:20.000 : en:Chapter 05 01:20:27.916 : en:Chapter 06 01:34:22.583 : en:Chapter 07 01:53:57.833 : en:Chapter 08 01:57:43.583 : en:Chapter 09
Релиз: Присоединяйся к: Кликай на баннеры.

Всего файлов в раздаче: 1 
Nightwatch.Demons.Are.Forever.2023.DVO.BDRip.1080p.x264.seleZen.mkv9.27 GB

Похожие раздачи по запросу - Ночной
2024-05-24 magnet Ночной сторож: Демоны передаются по наследству / Nattevagten - Dæmoner går i arv / Nightwatch: Demons Are Forever (2023) BDRip 720p от DoMiNo & селезень | P, P2 | TVShows, ViruseProject 4.39 GB ↑ 0 ↓ 0
2024-05-24 magnet Ночной сторож: Демоны передаются по наследству / Nattevagten - Dæmoner går i arv / Nightwatch: Demons Are Forever (2023) BDRip-AVC от DoMiNo & селезень | P, P2 | TVShows, ViruseProject 1.78 GB ↑ 0 ↓ 0
2024-05-24 magnet Ночной сторож: Демоны передаются по наследству / Nattevagten - Dæmoner går i arv / Nightwatch: Demons Are Forever (2023) BDRemux 1080p | P, P2 18.64 GB ↑ 0 ↓ 0
2024-05-24 magnet Ночной сторож: Демоны передаются по наследству / Nattevagten - Dæmoner går i arv / Nightwatch: Demons Are Forever (2023) HDRip-AVC от New-Team | P, P2 2.36 GB ↑ 0 ↓ 0
2024-05-13 magnet Ночной рейс / Красный глаз / Red Eye [S01] (2024) WEB-DL 720p | RuDub 8.26 GB ↑ 0 ↓ 0
2024-05-10 magnet Ночной рейс / Красный глаз / Red Eye [01x01-04 из 06] (2024) WEB-DL 720p | RuDub 5.50 GB ↑ 0 ↓ 0
2024-03-15 magnet Ночной рейд / Topakk (2023) WEB-DLRip | D 747.61 MB ↑ 0 ↓ 0

Комментарии


Зарегистрируйтесь чтобы добавить комментарий
Торрент клиент
byTorrent - программа для загрузки торрент-файлов.

Скачать byTorrent.exe (1,5 МБ)

Скачать byTorrent.zip (0,6 МБ)

Поддержи torrent.by
российских рублей
(300 российских рублей это 4$)

Обратная связь rss

End game ©