↑↓torrent.by
Поиск
Логин:  Регистрация
Пароль:

Должное правосудие / Надлежащее правосудие / Due Justice (2023) WEB-DL 1080p от ELEKTRI4KA | D

download Скачать торрент-файл   magnet Магнитная ссылка Размер: 5.24 GB Раздают: 1 Качают: 0 Добавлен: 2024-03-18 05:00
Пиры будут получены из сети DHT
Последний сидер был замечен сегодня в 00:26
Бывший спецназовец должен спасти свою дочь из рук торговцев органами. Звезда «Сумерек» в захватывающем боевике. Информация о фильме Название: Надлежащее правосудие / Должное правосудие Оригинальное название: Due Justice Год выхода: 2023 Жанр: боевик, триллер, драма, криминал Режиссер: Хавьер Рейна В ролях: Келлан Латс, Джефф Фэйи, Эфрен Рамирес, Синтия Гири, Ману Интирэйми, Челси Лопес, Тонанцин Эспарза, Халли Шеперд, Нико Фостер, Рэймонд Пауэр О фильме: Макс — бывший военный пехотинец, который оставил службу в прошлом в надежде на мирное будущее со своей семьей. У него любящая жена и очаровательная дочь, и он с ними счастлив. Однако счастье это длится недолго. Жену и брата Макса — агента ФБР — жестоко убивают, а дочь похищают. Полностью разбитый этой трагедией, герой решает во что бы то ни стало найти и спасти свою пропавшую дочь, а заодно отомстить за смерти близких, и начинает выслеживать опасную банду. Выпущено: США / Al Bravo Films, BondIt, Premiere Entertainment Group, Revisilagi Vfx Studio Продолжительность: 01:37:21 Озвучивание: Дублированное | Официальное Файл Формат: MKV Качество: WEB-DL 1080p | AMZN Видео: MPEG-4 AVC, 6300 Kb/s, 1920x800 Аудио: Russian: AC3, 384 Kb/s (6 ch) / E-AC3, 384 Kb/s (6 ch), English: E-AC3, 640 Kb/s (6 ch) Субтитры: English Дополнительно: Нет Релиз группы: &  | Мы в Telegram:
[+] Инфо-файл:Complete name: Dolzhnoe.pravosudie.2023.AMZN.WEB-DL.1080p.ELEKTRI4KA.UNIONGANG.mkv Format: Matroska Format version: Version 4 File size: 5.24 GiB Duration: 1 h 37 min Overall bit rate: 7 710 kb/s Movie name: Dolzhnoe.pravosudie.2023.AMZN.WEB-DL.1080p.ELEKTRI4KA.UNIONGANG. Encoded date: UTC 2024-03-17 10:01:05 Writing application: mkvmerge v8.3.0 ('Over the Horizon') 64bit Writing library: libebml v1.3.1 + libmatroska v1.4.2 Video ID: 1 Format: AVC Format/Info: Advanced Video Codec Format profile: High@L4 Format settings: CABAC / 4 Ref Frames Format settings, CABAC: Yes Format settings, Reference frames: 4 frames Codec ID: V_MPEG4/ISO/AVC Duration: 1 h 37 min Bit rate mode: Constant Bit rate: 6 300 kb/s Nominal bit rate: 10 000 kb/s Width: 1 920 pixels Height: 800 pixels Display aspect ratio: 2.40:1 Frame rate mode: Constant Frame rate: 23.976 (24000/1001) FPS Color space: YUV Chroma subsampling: 4:2:0 Bit depth: 8 bits Scan type: Progressive Bits/(Pixel*Frame): 0.171 Stream size: 4.28 GiB (82%) Default: Yes Forced: No Color range: Limited Color primaries: BT.709 Transfer characteristics: BT.709 Matrix coefficients: BT.709 Audio #1 ID: 2 Format: AC-3 Format/Info: Audio Coding 3 Commercial name: Dolby Digital Codec ID: A_AC3 Duration: 1 h 37 min Bit rate mode: Constant Bit rate: 384 kb/s Channel(s): 6 channels Channel layout: L R C LFE Ls Rs Sampling rate: 48.0 kHz Frame rate: 31.250 FPS (1536 SPF) Compression mode: Lossy Stream size: 267 MiB (5%) Title: DUB AC3 Language: Russian Service kind: Complete Main Default: Yes Forced: Yes Audio #2 ID: 3 Format: E-AC-3 Format/Info: Enhanced AC-3 Commercial name: Dolby Digital Plus Codec ID: A_EAC3 Duration: 1 h 37 min Bit rate mode: Constant Bit rate: 384 kb/s Channel(s): 6 channels Channel layout: L R C LFE Ls Rs Sampling rate: 48.0 kHz Frame rate: 31.250 FPS (1536 SPF) Compression mode: Lossy Stream size: 267 MiB (5%) Title: DUB EAC3 Language: Russian Service kind: Complete Main Default: No Forced: No Audio #3 ID: 4 Format: E-AC-3 Format/Info: Enhanced AC-3 Commercial name: Dolby Digital Plus Codec ID: A_EAC3 Duration: 1 h 37 min Bit rate mode: Constant Bit rate: 640 kb/s Channel(s): 6 channels Channel layout: L R C LFE Ls Rs Sampling rate: 48.0 kHz Frame rate: 31.250 FPS (1536 SPF) Compression mode: Lossy Stream size: 446 MiB (8%) Title: Original Language: English Service kind: Complete Main Default: No Forced: No Text ID: 5 Format: UTF-8 Codec ID: S_TEXT/UTF8 Codec ID/Info: UTF-8 Plain Text Duration: 1 h 36 min Bit rate: 59 b/s Count of elements: 1616 Stream size: 42.3 KiB (0%) Language: English Default: No Forced: No
[+] Скриншоты

Всего файлов в раздаче: 1 
Dolzhnoe.pravosudie.2023.AMZN.WEB-DL.1080p.ELEKTRI4KA.UNIONGANG.mkv5.24 GB

Похожие раздачи по запросу - Надлежащее
2024-04-04 magnet Должное правосудие / Надлежащее правосудие / Due Justice (2023) BDRip от toxics & селезень | D 1.46 GB ↑ 0 ↓ 2
2024-04-01 magnet Должное правосудие / Надлежащее правосудие / Due Justice (2023) BDRip 720p от DoMiNo & селезень | D 3.93 GB ↑ 1 ↓ 0
2024-03-31 magnet Должное правосудие / Надлежащее правосудие / Due Justice (2023) BDRip-AVC от DoMiNo & селезень | D 1.35 GB ↑ 0 ↓ 0
2024-03-18 magnet Должное правосудие / Надлежащее правосудие / Due Justice (2023) WEB-DLRip-AVC от DoMiNo & селезень | D 1.24 GB ↑ 0 ↓ 0
2024-03-18 magnet Должное правосудие / Надлежащее правосудие / Due Justice (2023) WEB-DLRip от ELEKTRI4KA | D | Локализованная версия 1.46 GB ↑ 0 ↓ 0

Комментарии


Зарегистрируйтесь чтобы добавить комментарий
Торрент клиент
byTorrent - программа для загрузки торрент-файлов.

Скачать byTorrent.exe (1,5 МБ)

Скачать byTorrent.zip (0,6 МБ)

Поддержи torrent.by
российских рублей
(300 российских рублей это 4$)

Обратная связь rss

End game ©