↑↓torrent.by
Поиск
Логин:  Регистрация
Пароль:

Peter Garrett - The True North [24-bit Hi-Res] (2024) FLAC

download Скачать торрент-файл   magnet Магнитная ссылка Размер: 723.98 MB Добавлен: 2024-03-18 11:00
Пиры будут получены из сети DHT
Последний сидер был замечен 2024-03-19 23:39
Название: The True North Исполнитель: Peter Garrett Год: 2024 Жанр: Rock, Alternative-Rock Издатель (лейбл): Sony Music Entertainment Продолжительность: 00:36:51 Формат/Кодек: FLAC Тип рипа: Tracks Битрейт аудио: Lossless Разрядность: 24 Bit/88,2 kHz
[+] Трек-лист 01. The True North (00:03:30) 02. Paddo (00:03:57) 03. Innocence Parts 1 & 2 (00:07:15) 04. Hey Archetype (00:03:14) 05. Permaglow (00:03:29) 06. Human Playground (00:03:37) 07. Currowan (00:03:19) 08. Meltdown (00:03:54) 09. Everybody (00:04:36)
[+] DRM foobar2000 1.5.5 / Замер динамического диапазона (DR) 1.1.1 ------------------------------------------------------------------------------- Анализ: Peter Garrett / The True North -------------------------------------------------------------------------------- DR Пики RMS Продолжительность трека -------------------------------------------------------------------------------- DR7 -0.10 дБ -9.89 дБ 3:30 01-The True North DR6 -0.10 дБ -7.57 дБ 3:57 02-Paddo DR5 -0.10 дБ -7.47 дБ 7:15 03-Innocence Parts 1 & 2 DR6 -0.10 дБ -6.64 дБ 3:14 04-Hey Archetype DR5 -0.10 дБ -7.19 дБ 3:29 05-Permaglow DR7 -0.10 дБ -7.99 дБ 3:37 06-Human Playground DR5 -0.10 дБ -6.39 дБ 3:19 07-Currowan DR6 -0.10 дБ -8.63 дБ 3:54 08-Meltdown DR8 -0.10 дБ -10.37 дБ 4:36 09-Everybody -------------------------------------------------------------------------------- Количество треков: 9 Реальные значения DR: DR6 Частота: 88200 Гц Каналов: 2 Разрядность: 24 Битрейт: 2527 кбит/с Кодек: FLAC ================================================================================
Время раздачи: 24/7 (минимум до появления первых 3-5 скачавших, на раздачи не возвращаюсь) Первое правило участника файлообмена: "Скачал сам - дай скачать другому!"

Всего файлов в раздаче: 10 
01. The True North.flac65.94 MB
02. Paddo.flac79.04 MB
03. Innocence Parts 1 & 2.flac143.53 MB
04. Hey Archetype.flac66.87 MB
05. Permaglow.flac70.39 MB
06. Human Playground.flac70.90 MB
07. Currowan.flac68.06 MB
08. Meltdown.flac75.49 MB
09. Everybody.flac83.53 MB
cover.jpg242.02 kB

Похожие раздачи по запросу - Peter
2024-03-18 magnet Peter Garrett - The True North (2024) MP3 86.76 MB ↑ 0 ↓ 0
2023-12-05 magnet Peter Gabriel - Hi-Res Masters [24-bit Hi-Res] (2023) FLAC 3.81 GB ↑ 0 ↓ 0
2023-12-01 magnet Peter Gabriel - i/o [24Bit, Hi-Res] (2023) FLAC 2.62 GB ↑ 0 ↓ 0
2023-11-28 magnet Peter Gabriel - i/o (2023) FLAC 831.01 MB ↑ 1 ↓ 0

Комментарии


Зарегистрируйтесь чтобы добавить комментарий
Торрент клиент
byTorrent - программа для загрузки торрент-файлов.

Скачать byTorrent.exe (1,5 МБ)

Скачать byTorrent.zip (0,6 МБ)

Поддержи torrent.by
российских рублей
(300 российских рублей это 4$)

Обратная связь rss

End game ©