↑↓torrent.by
Поиск
Логин:  Регистрация
Пароль:

Ronnie Romero - Too Many Lies, Too Many Masters [24-bit Hi-Res, Deluxe Edition] (2024) FLAC

download Скачать торрент-файл   magnet Магнитная ссылка Размер: 597.41 MB Добавлен: 2024-03-18 11:00
Пиры будут получены из сети DHT
Последний сидер был замечен 2024-03-24 06:33
Название: Too Many Lies, Too Many Masters (Deluxe Edition) Исполнитель: Ronnie Romero Год: 2024 Жанр: Rock, Heavy-Metal Издатель (лейбл): Frontiers Records srl Продолжительность: 00:49:30 Формат/Кодек: FLAC Тип рипа: Tracks Битрейт аудио: Lossless Разрядность: 24 Bit/48 kHz
[+] Трек-лист 01. Castaway On The Moon (00:03:37) 02. Mountain Of Light (00:03:44) 03. I've Been Losing You (00:04:54) 04. Too Many Lies, Too Many Masters (00:04:55) 05. Girl, Don't Listen To The Radio (00:04:43) 06. Crossroad (00:04:43) 07. Not Just A Nightmare (00:04:30) 08. A Distant Shore (00:03:45) 09. Chased By Shadows (00:05:38) 10. Vengeance (00:03:54) 11. The Show Must Go On (Orchestra Version - Bonus Track) (00:05:07)
[+] DRM foobar2000 1.5.5 / Замер динамического диапазона (DR) 1.1.1 ------------------------------------------------------------------------------- Анализ: Ronnie Romero / Too Many Lies, Too Many Masters -------------------------------------------------------------------------------- DR Пики RMS Продолжительность трека -------------------------------------------------------------------------------- DR6 0.00 дБ -6.98 дБ 3:37 01-Castaway On The Moon DR7 0.00 дБ -7.80 дБ 3:44 02-Mountain Of Light DR7 0.00 дБ -8.35 дБ 4:54 03-I've Been Losing You DR7 0.00 дБ -7.27 дБ 4:55 04-Too Many Lies, Too Many Masters DR7 0.00 дБ -8.20 дБ 4:43 05-Girl, Don't Listen To The Radio DR7 0.00 дБ -8.26 дБ 4:43 06-Crossroad DR6 0.00 дБ -7.17 дБ 4:30 07-Not Just A Nightmare DR7 0.00 дБ -8.40 дБ 3:45 08-A Distant Shore DR6 0.00 дБ -7.31 дБ 5:38 09-Chased By Shadows DR6 0.00 дБ -6.99 дБ 3:54 10-Vengeance -------------------------------------------------------------------------------- Количество треков: 10 Реальные значения DR: DR7 Частота: 44100 Гц Каналов: 2 Разрядность: 24 Битрейт: 1688 кбит/с Кодек: FLAC ================================================================================ -------------------------------------------------------------------------------- Статистика для: 11-The Show Must Go On (Orchestra Version - Bonus Track) Количество сэмплов: 14717696 Продолжительность: 5:07 -------------------------------------------------------------------------------- Левый Правый Пики: -0.20 дБ --- -0.20 дБ Средний RMS: -9.52 дБ --- -10.52 дБ DR канала: 6.10 дБ --- 7.87 дБ -------------------------------------------------------------------------------- Реальные значения DR: DR7 Частота: 48000 Гц Каналов: 2 Разрядность: 24 Битрейт: 1553 кбит/с Кодек: FLAC ================================================================================
Время раздачи: 24/7 (минимум до появления первых 3-5 скачавших, на раздачи не возвращаюсь) Первое правило участника файлообмена: "Скачал сам - дай скачать другому!"

Всего файлов в раздаче: 12 
01. Castaway On The Moon.flac44.31 MB
02. Mountain Of Light.flac46.04 MB
03. I've Been Losing You.flac59.41 MB
04. Too Many Lies, Too Many Masters.flac60.14 MB
05. Girl, Don't Listen To The Radio.flac56.48 MB
06. Crossroad.flac56.22 MB
07. Not Just A Nightmare.flac55.71 MB
08. A Distant Shore.flac44.34 MB
09. Chased By Shadows.flac69.28 MB
10. Vengeance.flac47.57 MB
Показать все файлы

Похожие раздачи по запросу - Ronnie
2024-03-17 magnet Ronnie Romero - Too Many Lies, Too Many Masters [Deluxe Edition] (2024) MP3 114.64 MB ↑ 0 ↓ 0
2024-02-25 magnet Dio - Ronnie's Birthday Show [Reissue] (2021/2024) FLAC 662.58 MB ↑ 0 ↓ 0

Комментарии


Зарегистрируйтесь чтобы добавить комментарий
Торрент клиент
byTorrent - программа для загрузки торрент-файлов.

Скачать byTorrent.exe (1,5 МБ)

Скачать byTorrent.zip (0,6 МБ)

Поддержи torrent.by
российских рублей
(300 российских рублей это 4$)

Обратная связь rss

End game ©