↑↓torrent.by
Поиск
Логин:  Регистрация
Пароль:

Гаро: Наследник Стальной Брони / Garo: Hagane o Tsugu Mono [TV] [S01x01-09] (2024) WEBRip-AVC | L1

download Скачать торрент-файл   magnet Магнитная ссылка Размер: 3.39 GB Добавлен: 2024-03-18 11:00
Пиры будут получены из сети DHT
Последний сидер был замечен 2024-03-18 22:33
Информация о фильме Название: ГАРО: Наследник Стальной Брони Оригинальное название: Garo: Hagane o Tsugu Mono / GARO: Heir to Steel Armor Год выхода: 11.01.2024 Жанр: драма, боевик, мистика, ужасы Студия: Производственная компания Тохоку Синша Режиссер: Ёсикацу Кимура, Ясухиро Мацуда, Юкадзу Танака и другие. В ролях: Курияма Ватару Догай Рюга / (Золотой рыцарь Гаро Главная роль), Накано Он (Сираха Сома / Хагане) Наказава Мико (Коёри), Куротани Томока (Муцуки), Хагивара Масато (Godo) Ямамото Акихиро (Рон) и другие. О фильме: Рюга Догай — рыцарь Макай, носящий титул Золотого рыцаря Гаро и преодолевший множество испытаний и невзгод. Сегодня ночью он одновременно призовет доспехи Гаро и сразит монстров-людоедов, Хороров. Затем появилась Коёри, жрица Макай. Чтобы получить помощь Золотого Рыцаря, она сообщает ему о неотложной ситуации, которая потрясает мир. «Врата Разрушения будут открыты». «Врата Разрушения» — старейшие врата, где, как говорят, впервые ужасы появились в человеческом мире. По какой-то причине он снова на грани открытия. Под руководством Коёри Рюга посещает Кресити, город со скрытыми воротами. В городе, где преобладает запах тьмы, исходящий из Врат Разрушения, Рюга чувствует зло и немедленно вступает в бой с Хорором. В разгар ожесточенной битвы внезапно появляется загадочный рыцарь Макай. Рыцарь — Сума Сирахане, одетый в доспехи «Хагане». Какова судьба Сумы, которая охотится на Хороры как безымянный рыцарь Хагане!? Сможет ли Рюга остановить открытие Врат Разрушения!? Теперь начинается жестокая история, приближающаяся к происхождению «Защитника». Доп. информация: Посвящено 10-летнему юбилею GARO: The One Who Shining in the Darkness Золотой рыцарь Гаро — японский телесериал в жанрах мистики, ужасов и токусацу. В отличие от всех прочих сериалов в последнем жанре, ориентирован на взрослую аудиторию. Оригинальный сериал выходил на канале TV Tokyo с 7 октября 2005 года по 31 марта 2006 года, продлившись 25 эпизодов. Годы спустя сериал стал родоначальником собственной франшизы, насчитывающей ещё несколько сезонов (из которых не все связаны с первым), несколько полнометражных фильмов и спин-оффы (игровые и аниме). © Страна: Япония Продолжительность: ТВ (XX эп.) 00:24:00 Перевод: Любительский одноголосый (Persona99) Файл Формат видео: mp4 Качество: WEBRip-AVC Видео: AVC 856x480, 23.976 fps, ~1820 Kbps 8 bits Аудио 1: AAC , 128 kb/s, 44.0 KHz, 2 ch - любительский одноголосый Аудио 2: AAC , 128 kb/s, 44.0 KHz, 2 ch - оригинал (Японский) Субтитры: (внешние) Язык субтитров английский
[+] Подробные тех. данныеGeneral Complete name : GGARO - Hagane wo Tsugu Mono EP01 .rus.jpn.mp4 Format : MPEG-4 Format profile : Base Media Codec ID : isom (isom) File size : 352 MiB Duration : 23 min 40 s Overall bit rate mode : Variable Overall bit rate : 2 080 kb/s Encoded date : UTC 2024-01-15 10:15:57 Tagged date : UTC 2024-01-15 10:15:57 Writing application : Yamb 2.1.0.0 Video ID : 1 Format : AVC Format/Info : Advanced Video Codec Format profile : High@L3 Format settings : CABAC / 4 Ref Frames Format settings, CABAC : Yes Format settings, Reference frames : 4 frames Codec ID : avc1 Codec ID/Info : Advanced Video Coding Duration : 23 min 40 s Bit rate : 1 820 kb/s Maximum bit rate : 10.7 Mb/s Width : 856 pixels Height : 480 pixels Display aspect ratio : 16:9 Frame rate mode : Constant Frame rate : 23.976 (24000/1001) FPS Color space : YUV Chroma subsampling : 4:2:0 Bit depth : 8 bits Scan type : Progressive Bits/(Pixel*Frame) : 0.185 Stream size : 308 MiB (87%) Title : GSG Writing library : x264 core 164 r3107 a8b68eb Encoding settings : cabac=1 / ref=3 / deblock=1:0:0 / analyse=0x3:0x113 / me=hex / subme=7 / psy=1 / psy_rd=1.00:0.00 / mixed_ref=1 / me_range=16 / chroma_me=1 / trellis=1 / 8x8dct=1 / cqm=0 / deadzone=21,11 / fast_pskip=1 / chroma_qp_offset=-2 / threads=6 / lookahead_threads=1 / sliced_threads=0 / nr=0 / decimate=1 / interlaced=0 / bluray_compat=0 / constrained_intra=0 / bframes=3 / b_pyramid=2 / b_adapt=1 / b_bias=0 / direct=1 / weightb=1 / open_gop=0 / weightp=2 / keyint=240 / keyint_min=23 / scenecut=40 / intra_refresh=0 / rc_lookahead=40 / rc=2pass / mbtree=1 / bitrate=1820 / ratetol=1.0 / qcomp=0.60 / qpmin=0 / qpmax=69 / qpstep=4 / cplxblur=20.0 / qblur=0.5 / ip_ratio=1.40 / aq=1:1.00 Encoded date : UTC 2024-01-16 03:57:30 Tagged date : UTC 2024-01-15 10:16:01 Codec configuration box : avcC Audio #1 ID : 2 Format : AAC LC SBR Format/Info : Advanced Audio Codec Low Complexity with Spectral Band Replication Commercial name : HE-AAC Format settings : Explicit Codec ID : mp4a-40-2 Duration : 23 min 40 s Bit rate mode : Variable Bit rate : 128 kb/s Maximum bit rate : 137 kb/s Channel(s) : 2 channels Channel layout : L R Sampling rate : 44.1 kHz Frame rate : 21.533 FPS (2048 SPF) Compression mode : Lossy Stream size : 21.7 MiB (6%) Title : Persona99 Language : Russian Encoded date : UTC 2024-01-15 10:15:59 Tagged date : UTC 2024-01-15 10:16:01 Audio #2 ID : 3 Format : AAC LC Format/Info : Advanced Audio Codec Low Complexity Codec ID : mp4a-40-2 Duration : 23 min 40 s Bit rate mode : Variable Bit rate : 128 kb/s Maximum bit rate : 141 kb/s Channel(s) : 2 channels Channel layout : L R Sampling rate : 44.1 kHz Frame rate : 43.066 FPS (1024 SPF) Compression mode : Lossy Stream size : 21.7 MiB (6%) Language : Japanese Encoded date : UTC 2024-01-15 10:16:00 Tagged date : UTC 2024-01-15 10:16:01
[+] Список эпизодов 01. Начало (Prologue) 02. Кидзаши (Symptoms) 03. Хагане (Hagane) 04. Рана (Scar) 05. Сатору (Realize) 06. Манако (Eyes) 07. Итами (Tragedy) 08. Вдохновение (Flash) 09. Ворота (Gate)
[+] Скриншоты
Сэмпл:

Всего файлов в раздаче: 18 
EngSub\GARO - Hagane wo Tsugu Mono EP01 [Persona99][480].rus.jpn.eng.srt10.63 kB
EngSub\GARO - Hagane wo Tsugu Mono EP02 [Persona99][480].rus.jpn.eng.srt13.79 kB
EngSub\GARO - Hagane wo Tsugu Mono EP03 [Persona99][480].rus.jpn.eng.srt12.90 kB
EngSub\GARO - Hagane wo Tsugu Mono EP04 [Persona99][480].rus.jpn.eng.srt12.84 kB
EngSub\GARO - Hagane wo Tsugu Mono EP05 [Persona99][480].rus.jpn.eng.srt9.32 kB
EngSub\GARO - Hagane wo Tsugu Mono EP06 [Persona99][480].rus.jpn.eng.srt11.37 kB
EngSub\GARO - Hagane wo Tsugu Mono EP07 [Persona99][480].rus.jpn.eng.srt8.39 kB
EngSub\GARO - Hagane wo Tsugu Mono EP08 [Persona99][480].rus.jpn.eng.srt12.42 kB
EngSub\GARO - Hagane wo Tsugu Mono EP09 [Persona99][480].rus.jpn.eng.srt18.25 kB
GARO - Hagane wo Tsugu Mono EP01 [Persona99][480].rus.jpn.mp4352.10 MB
Показать все файлы

Похожие раздачи по запросу - Гаро
2024-04-14 magnet Гаро: Наследник Стальной Брони / Garo: Hagane o Tsugu Mono [TV] [S01] (2024) WEBRip 1080p | L1 4.68 GB ↑ 0 ↓ 0
2024-04-08 magnet Гаро: Наследник Стальной Брони / Garo: Hagane o Tsugu Mono [TV] [S01] (2024) WEBRip-AVC | L1 4.34 GB ↑ 0 ↓ 0

Комментарии


Зарегистрируйтесь чтобы добавить комментарий
Торрент клиент
byTorrent - программа для загрузки торрент-файлов.

Скачать byTorrent.exe (1,5 МБ)

Скачать byTorrent.zip (0,6 МБ)

Поддержи torrent.by
российских рублей
(300 российских рублей это 4$)

Обратная связь rss

End game ©