↑↓torrent.by
Поиск
Логин:  Регистрация
Пароль:

Любовь в саванне / A Safari Romance (2023) WEB-DL 1080p от селезень | P

download Скачать торрент-файл   magnet Магнитная ссылка Размер: 4.92 GB Раздают: 0 Качают: 1 Добавлен: 2024-03-18 11:00
Пиры будут получены из сети DHT
Последний сидер был замечен 2024-04-10 12:53
Информация о фильме Название: Любовь в саванне Оригинальное название: A Safari Romance Год выхода: 2023 Жанр: драма, мелодрама, комедия Режиссер: Лейф Бристоу В ролях: Эндрю У. Уокер, Бриттани Бристоу, Maxx Moticoe, Нтхати Мошеш, Samke Makhoba, Simoné Nortmann, Рика Сеннетт, Джеймс Бортвик, Крэйг Гарднер, Deidre Dikotla О фильме: Работая над защитой дикой природы в Африке, биолог объединяется с дизайнером тематического парка, который хочет создать невероятный аттракцион для сафари. Страна: США, Канада, ЮАР Студия: 120dB Films, Leif Films, RHP Productions Продолжительность: 01:24:04 Перевод: Профессиональный многоголосый | OKKO Качество: WEB-DL 1080p Видео: MPEG-4 AVC, 1920x1080, 7806 Kbit/s, 23.976 fps Аудио #01: 48 kHz, AC3, 5.1, 384 Kbps | Профессиональный многоголосый | OKKO | RUS | Аудио #02: 48 kHz, E-AC3, 5.1, 192 Kbps | Оригинал | ENG | Субтитры: Английские
[+] MIGeneral Unique ID : 252927200481888003312314917772638149689 (0xBE4801C53C0A8E1A59A56AFFB14DDC39) Complete name : H:VideoHA.Safari.Romance.2023.WEB-DL.1080p.seleZen.mkv Format : Matroska Format version : Version 4 File size : 4.92 GiB Duration : 1 h 24 min Overall bit rate : 8 385 kb/s Frame rate : 23.976 FPS Movie name : A Safari Romance 2023 from seleZen Encoded date : 2024-03-17 19:42:32 UTC Writing application : mkvmerge v80.0 ('Roundabout') 64-bit Writing library : libebml v1.4.4 + libmatroska v1.7.1 Video ID : 1 Format : AVC Format/Info : Advanced Video Codec Format profile : High@L4 Format settings : CABAC / 3 Ref Frames Format settings, CABAC : Yes Format settings, Reference : 3 frames Codec ID : V_MPEG4/ISO/AVC Duration : 1 h 24 min Bit rate : 7 806 kb/s Width : 1 920 pixels Height : 1 080 pixels Display aspect ratio : 16:9 Frame rate mode : Constant Frame rate : 23.976 (24000/1001) FPS Color space : YUV Chroma subsampling : 4:2:0 Bit depth : 8 bits Scan type : Progressive Bits/(Pixel*Frame) : 0.157 Stream size : 4.58 GiB (93%) Language : English Default : Yes Forced : No Color range : Limited Color primaries : BT.709 Transfer characteristics : BT.709 Matrix coefficients : BT.709 Audio #1 ID : 2 Format : AC-3 Format/Info : Audio Coding 3 Commercial name : Dolby Digital Codec ID : A_AC3 Duration : 1 h 24 min Bit rate mode : Constant Bit rate : 384 kb/s Channel(s) : 6 channels Channel layout : L R C LFE Ls Rs Sampling rate : 48.0 kHz Frame rate : 31.250 FPS (1536 SPF) Compression mode : Lossy Stream size : 231 MiB (5%) Title : MVO_OKKO Language : Russian Service kind : Complete Main Default : Yes Forced : No Audio #2 ID : 3 Format : E-AC-3 Format/Info : Enhanced AC-3 Commercial name : Dolby Digital Plus Codec ID : A_EAC3 Duration : 1 h 24 min Bit rate mode : Constant Bit rate : 192 kb/s Channel(s) : 6 channels Channel layout : L R C LFE Ls Rs Sampling rate : 48.0 kHz Frame rate : 31.250 FPS (1536 SPF) Compression mode : Lossy Stream size : 115 MiB (2%) Title : Original Language : English Service kind : Complete Main Default : No Forced : No Text ID : 4 Format : UTF-8 Codec ID : S_TEXT/UTF8 Codec ID/Info : UTF-8 Plain Text Duration : 1 h 23 min Bit rate : 91 b/s Frame rate : 0.366 FPS Count of elements : 1837 Stream size : 56.0 KiB (0%) Language : English Default : No Forced : No
Релиз: Присоединяйся к: Кликай на баннеры.

Всего файлов в раздаче: 1 
A.Safari.Romance.2023.WEB-DL.1080p.seleZen.mkv4.92 GB

Похожие раздачи по запросу - Любовь
Сегодня magnet Влад Сташевский - Любовь здесь больше не живёт (1994) MP3 80.82 MB ↑ 0 ↓ 0
Сегодня magnet Любовь до последнего / Expiration Date / Casi muerta (2023) WEB-DLRip от New-Team | P | Кинопоиск HD 1.46 GB ↑ 0 ↓ 0
2024-04-09 magnet Сколько стоит любовь [S01] (2024) WEB-DLRip-AVC от Files-x 2.40 GB ↑ 0 ↓ 0
2024-04-08 magnet Сколько стоит любовь [S01] (2024) WEB-DL 1080p от Files-x 5.14 GB ↑ 0 ↓ 0
2024-04-08 magnet Сколько стоит любовь [S01] (2024) WEB-DL 720p от Files-x 2.91 GB ↑ 0 ↓ 0
2024-04-08 magnet Сколько стоит любовь [S01] (2024) WEB-DLRip от Files-x 2.36 GB ↑ 0 ↓ 0
2024-04-07 magnet Сколько живет любовь [01-04 из 04] (2019) WEB-DL 1080p 4.92 GB ↑ 0 ↓ 0

Комментарии


Зарегистрируйтесь чтобы добавить комментарий
Торрент клиент
byTorrent - программа для загрузки торрент-файлов.

Скачать byTorrent.exe (1,5 МБ)

Скачать byTorrent.zip (0,6 МБ)

Поддержи torrent.by
российских рублей
(300 российских рублей это 4$)

Обратная связь rss

End game ©