↑↓torrent.by
Поиск
Логин:  Регистрация
Пароль:

Royal Hunt - Cargo (2016) FLAC

download Скачать торрент-файл   magnet Магнитная ссылка Размер: 688.53 MB Добавлен: 2024-03-18 17:00
Пиры будут получены из сети DHT
Последний сидер был замечен 2024-03-20 12:30
Исполнитель: Royal Hunt Название: Cargo Издатель: Avalon MICP-90090 Источник: Диск из личной коллекции Год: 2016 Жанр: Progressive-Metal Страна: Дания Кодек: FLAC Битрейт аудио: Lossless Формат: image+.cue+.log Продолжительность: 01:25:36 Рок-Энциклопедия
[+] Трек-листDisc 1: 01. The Mission 02. Half Past Loneliness 03. The Awakening 04. River Of Pain 05. Tearing Down The World 06. Message To God 07. Long Way Home Disc 2: 01. Time Will Tell 02. Silent Scream 03. It’s Over 04. May You Never (Walk Alone) 05. A Life To Die For
[+] Отчёт ЕАС Disc 1Exact Audio Copy V1.6 from 23. October 2020 Отчёт EAC об извлечении, выполненном 27. февраля 2024, 11:54 ROYAL HUNT / "Cargo" Disc 1 Дисковод: ASUS SBW-06C1S-U Adapter: 0 ID: 0 Режим чтения : Достоверность Использование точного потока : Да Отключение кэша аудио : Да Использование указателей C2 : Нет Коррекция смещения при чтении : 48 Способность читать области Lead-in и Lead-out : Нет Заполнение пропущенных сэмплов тишиной : Да Удаление блоков с тишиной в начале и конце : Нет При вычислениях CRC использовались нулевые сэмплы : Да Интерфейс : Установленный внешний ASPI-интерфейс Выходной формат : Пользовательский кодировщик Выбранный битрейт : 1024 kBit/s Качество : Высокий Добавление ID3-тега : Нет Утилита сжатия : C:Program Files (x86)Exact Audio CopyFlacflac.exe Дополнительные параметры : -8 -V -T "TITLE=%title%" -T "ARTIST=%artist%" -T "ALBUMARTIST=%albumartist%" -T "ALBUM=%albumtitle%" -T "DATE=%year%" -T "TRACKNUMBER=%tracknr%" -T "TRACKTOTAL=%numtracks%" -T "GENRE=%genre%" -T "COMMENT=%comment%" -T "PERFORMER=%albuminterpret%" -T "COMPOSER=%composer%" %source% -o %dest% TOC извлечённого CD Трек | Старт | Длительность | Начальный сектор | Конечный сектор --------------------------------------------------------------------- 1 | 0:00.00 | 6:36.36 | 0 | 29735 2 | 6:36.36 | 7:19.51 | 29736 | 62711 3 | 13:56.12 | 1:57.21 | 62712 | 71507 4 | 15:53.33 | 7:14.17 | 71508 | 104074 5 | 23:07.50 | 5:36.73 | 104075 | 129347 6 | 28:44.48 | 7:21.71 | 129348 | 162493 7 | 36:06.44 | 6:26.36 | 162494 | 191479 Характеристики диапазона извлечения и сообщения об ошибках Выбранный диапазон Имя файла D:RazdachiFilesRoyal Hunt Royal Hunt - 2016 - Cargo Disc 1ROYAL HUNT - ''Cargo'' Disc 1.wav Пиковый уровень 100.0 % Скорость извлечения 5.9 X Качество диапазона 99.9 % CRC теста 83D8848F CRC копии 83D8848F Копирование... OK Ошибок не произошло AccurateRip: сводка Трек 1 : извлечено точно (достоверность 9) (AR v2) Трек 2 : извлечено точно (достоверность 9) (AR v2) Трек 3 : извлечено точно (достоверность 9) (AR v2) Трек 4 : извлечено точно (достоверность 9) (AR v2) Трек 5 : извлечено точно (достоверность 9) (AR v2) Трек 6 : извлечено точно (достоверность 9) (AR v2) Трек 7 : извлечено точно (достоверность 7) (AR v2) Все треки извлечены точно Конец отчёта ---- CUETools DB Plugin V2.1.6 found Submit result: Uh38qSNO4KkACjs._D5Xf4r6BjM- has been confirmed Track | CTDB Status 1 | (33/33) Accurately ripped 2 | (33/33) Accurately ripped 3 | (33/33) Accurately ripped 4 | (33/33) Accurately ripped 5 | (33/33) Accurately ripped 6 | (33/33) Accurately ripped 7 | (32/33) Accurately ripped ==== Контрольная сумма отчёта AB6B963603B3BBE359606E762847548CF98E7AABFA716C7908308BDC77A4F00D ====
[+] Отчёт ЕАС Disc 2Exact Audio Copy V1.6 from 23. October 2020 Отчёт EAC об извлечении, выполненном 27. февраля 2024, 12:13 ROYAL HUNT / "Cargo" Disc 2 Дисковод: ASUS SBW-06C1S-U Adapter: 0 ID: 0 Режим чтения : Достоверность Использование точного потока : Да Отключение кэша аудио : Да Использование указателей C2 : Нет Коррекция смещения при чтении : 48 Способность читать области Lead-in и Lead-out : Нет Заполнение пропущенных сэмплов тишиной : Да Удаление блоков с тишиной в начале и конце : Нет При вычислениях CRC использовались нулевые сэмплы : Да Интерфейс : Установленный внешний ASPI-интерфейс Выходной формат : Пользовательский кодировщик Выбранный битрейт : 1024 kBit/s Качество : Высокий Добавление ID3-тега : Нет Утилита сжатия : C:Program Files (x86)Exact Audio CopyFlacflac.exe Дополнительные параметры : -8 -V -T "TITLE=%title%" -T "ARTIST=%artist%" -T "ALBUMARTIST=%albumartist%" -T "ALBUM=%albumtitle%" -T "DATE=%year%" -T "TRACKNUMBER=%tracknr%" -T "TRACKTOTAL=%numtracks%" -T "GENRE=%genre%" -T "COMMENT=%comment%" -T "PERFORMER=%albuminterpret%" -T "COMPOSER=%composer%" %source% -o %dest% TOC извлечённого CD Трек | Старт | Длительность | Начальный сектор | Конечный сектор --------------------------------------------------------------------- 1 | 0:00.00 | 10:19.67 | 0 | 46491 2 | 10:19.67 | 6:14.34 | 46492 | 74575 3 | 16:34.26 | 9:09.00 | 74576 | 115750 4 | 25:43.26 | 7:50.05 | 115751 | 151005 5 | 33:33.31 | 9:29.67 | 151006 | 193747 Характеристики диапазона извлечения и сообщения об ошибках Выбранный диапазон Имя файла D:RazdachiFilesRoyal Hunt Royal Hunt - 2016 - Cargo Disc 2ROYAL HUNT - ''Cargo'' Disc 2.wav Пиковый уровень 99.9 % Скорость извлечения 6.0 X Качество диапазона 99.9 % CRC теста 1BBB270C CRC копии 1BBB270C Копирование... OK Ошибок не произошло AccurateRip: сводка Трек 1 : извлечено точно (достоверность 9) (AR v2) Трек 2 : извлечено точно (достоверность 9) (AR v2) Трек 3 : извлечено точно (достоверность 9) (AR v2) Трек 4 : извлечено точно (достоверность 9) (AR v2) Трек 5 : извлечено точно (достоверность 7) (AR v2) Все треки извлечены точно Конец отчёта ---- CUETools DB Plugin V2.1.6 found Submit result: v6bquxi4VhuT.PSCaG7SIxXb_.8- has been confirmed Track | CTDB Status 1 | (33/33) Accurately ripped 2 | (33/33) Accurately ripped 3 | (33/33) Accurately ripped 4 | (33/33) Accurately ripped 5 | (33/33) Accurately ripped ==== Контрольная сумма отчёта E542EF6A9B906FA1B97F29FB5EB8E5147AED66F86ACAF6578289C2E9A2449643 ====
Дополнительная информация: Royal Hunt — англоязычная рок-группа из Дании, основанная в 1989 году Андре (Андреем) Андерсеном (André Andersen). Время раздачи: В дневное время.

Всего файлов в раздаче: 20 
Disc 1\ROYAL HUNT - ''Cargo'' Disc 1.cue1.02 kB
Disc 1\ROYAL HUNT - ''Cargo'' Disc 1.flac297.97 MB
Disc 1\ROYAL HUNT - ''Cargo'' Disc 1.log6.76 kB
Disc 2\ROYAL HUNT - ''Cargo'' Disc 2.cue814.00 B
Disc 2\ROYAL HUNT - ''Cargo'' Disc 2.flac305.17 MB
Disc 2\ROYAL HUNT - ''Cargo'' Disc 2.log6.07 kB
Scans\Scan 01.jpg4.69 MB
Scans\Scan 02.jpg7.13 MB
Scans\Scan 03.jpg5.96 MB
Scans\Scan 04.jpg7.45 MB
Показать все файлы

Похожие раздачи по запросу - Royal
2024-04-14 magnet Королевская няня / The Royal Nanny (2022) WEBRip 1080p | Jaskier 6.14 GB ↑ 0 ↓ 0
2024-03-31 magnet Crusader Kings III: Royal Edition [v 1.12.4 + DLCs] (2020) PC | RePack от Pioneer 4.17 GB ↑ 0 ↓ 0
2024-03-29 magnet Crusader Kings III: Royal Edition [v 1.12.2.4 + DLCs] (2020) PC | Repack от dixen18 3.44 GB ↑ 0 ↓ 0
2024-03-20 magnet Crusader Kings III: Royal Edition [v 1.12.2.1 + DLCs] (2020) PC | Repack от Wanterlude 3.44 GB ↑ 0 ↓ 0
2024-03-18 magnet Royal Hunt - Devil's Dozen (2015) FLAC 465.31 MB ↑ 0 ↓ 0
2024-03-11 magnet Crusader Kings III: Royal Edition [v 1.12.2.1 + DLCs] (2020) PC | RePack от Pioneer 4.21 GB ↑ 0 ↓ 0
2024-01-28 magnet WWE Royal Rumble [2024, Рестлинг, WEBRip] 11.14 GB ↑ 0 ↓ 0

Комментарии


Зарегистрируйтесь чтобы добавить комментарий
Торрент клиент
byTorrent - программа для загрузки торрент-файлов.

Скачать byTorrent.exe (1,5 МБ)

Скачать byTorrent.zip (0,6 МБ)

Поддержи torrent.by
российских рублей
(300 российских рублей это 4$)

Обратная связь rss

End game ©