↑↓torrent.by
Поиск
Логин:  Регистрация
Пароль:

Большая любовь (2006) DVDRip

download Скачать торрент-файл   magnet Магнитная ссылка Размер: 1.46 GB Добавлен: 2024-03-18 17:00
Пиры будут получены из сети DHT
Последний сидер был замечен 2024-03-25 20:54
Информация о фильме Оригинальное название: Большая любовь Год выхода: 2006 Жанр: Лирическая комедия Режиссер: Дмитрий Фикс В ролях: Михаил Пореченков, Юлия Меньшова, Инна Макарова, Анатолий Васильев, Галина Петрова, Жанна Эппле, Олег Долин, Ольга Добрина, Геннадий Митник, Анна Уколова, Олег Акулич О фильме: Начало шестидесятых годов. Бравый генерал, убежденный холостяк и отчаянный бабник Антон Улыбабов получает приказ жениться в течение двух недель — в противном случае ему грозит увольнение из армии. В процессе отчаянных поисков невесты генерал впервые в жизни по-настоящему влюбляется… Страна: Россия Продолжительность: 01:34:00 Язык: Русский Файл Кодек: XviD Качество: DVDRip Видео: 640x480 (1.33:1), 25 fps, XviD build 73 ~1760 kbps avg, 0.23 bit/pixel Аудио: 48 kHz, AC3 Dolby Digital, 3/2 (L,C,R,l,r) LFE ch, ~448 kbps
[+] MediaInfo Общее Полное имя : J:Большая.любовь.2006.dvdrip__.avi Формат : AVI Формат/Информация : Audio Video Interleave Размер файла : 1,46 Гбайт Продолжительность : 1 ч. 34 м. Общий поток : 2218 Кбит/сек Программа кодирования : VirtualDubMod 1.5.10.3 | www.virtualdub-fr.org || (build 2550/release) Библиотека кодирования : VirtualDubMod build 2550/release Видео Идентификатор : 0 Формат : MPEG-4 Visual Профиль формата : Advanced Simple@L5 Параметр BVOP формата : 1 Параметр QPel формата : Нет Параметр GMC формата : Без точки перехода Параметр матрицы формата : Выборочная Идентификатор кодека : XVID Идентификатор кодека/Подсказка : XviD Продолжительность : 1 ч. 34 м. Битрейт : 1761 Кбит/сек Ширина : 640 пикселей Высота : 480 пикселей Соотношение сторон : 4:3 Частота кадров : 25,000 кадров/сек Цветовое пространство : YUV Субдискретизация насыщенности : 4:2:0 Битовая глубина : 8 бит Тип развёртки : Прогрессивная Метод сжатия : С потерями Бит/(Пиксели*Кадры) : 0.229 Размер потока : 1,16 Гбайт (79%) Библиотека кодирования : XviD 73 Аудио Идентификатор : 1 Формат : AC-3 Формат/Информация : Audio Coding 3 Расширение режима : CM (complete main) Параметр Endianness формата : Big Идентификатор кодека : 2000 Продолжительность : 1 ч. 33 м. Вид битрейта : Постоянный Битрейт : 448 Кбит/сек Каналы : 6 каналов Расположение каналов : Front: L C R, Side: L R, LFE Частота : 48,0 КГц Битовая глубина : 16 бит Метод сжатия : С потерями Размер потока : 301 Мбайт (20%) Выравнивание : Разделение по промежуткам Продолжительность промежутка : 40 мс. (1,00 видеокадр) Время предзагрузки промежутка : 500 мс.
[+] Скриншоты:
Релиз от:

Всего файлов в раздаче: 1 
Большая.любовь.2006.dvdrip_[1.46]_[teko].avi1.46 GB

Похожие раздачи по запросу - Большая
2024-03-28 magnet Большая семья / Extended Family [S01] (2023) WEBRip от Kerob | L2 3.98 GB ↑ 0 ↓ 0
2024-03-21 magnet Большая гонка. Ауди против Лянчи / Race for Glory: Audi vs. Lancia (2024) WEB-DLRip-AVC от DoMiNo & селезень | D, P 1К1.95 GB ↑ 0 ↓ 0
2024-03-21 magnet Большая гонка. Ауди против Лянчи / Race for Glory: Audi vs. Lancia (2024) WEB-DLRip от MegaPeer | D 1.46 GB ↑ 0 ↓ 0
2024-03-21 magnet Большая гонка. Ауди против Лянчи / Race for Glory: Audi vs. Lancia (2024) WEB-DL 1080p от селезень | D, P 7.78 GB ↑ 0 ↓ 0
2024-02-22 magnet Моя большая греческая свадьба 3 / My Big Fat Greek Wedding 3 (2023) BDRip от New-Team | P 1.46 GB ↑ 0 ↓ 0
2024-02-12 magnet Константин Залесский - Великая Отечественная война. Большая биографическая энциклопедия (2013) FB2 32.03 MB ↑ 0 ↓ 0
2024-01-25 magnet Коллектив авторов - Большая энциклопедия домашней кухни для начинающих (2018) PDF 63.85 MB ↑ 0 ↓ 0

Комментарии


Зарегистрируйтесь чтобы добавить комментарий
Торрент клиент
byTorrent - программа для загрузки торрент-файлов.

Скачать byTorrent.exe (1,5 МБ)

Скачать byTorrent.zip (0,6 МБ)

Поддержи torrent.by
российских рублей
(300 российских рублей это 4$)

Обратная связь rss

End game ©