↑↓torrent.by
Поиск
Логин:  Регистрация
Пароль:

Дюна: Часть вторая / Дюна: Частина друга / Dune: Part Two (2024) TS 1080p | D, L | Line | UKR

download Скачать торрент-файл   magnet Магнитная ссылка Размер: 5.06 GB Добавлен: 2024-03-18 17:00
Пиры будут получены из сети DHT
Последний сидер был замечен 2024-04-07 17:57
Информация о фильме Название: Дюна: Часть вторая Оригинальное название: Dune: Part Two Год выхода: 2024 Жанр: фантастика, боевик, драма, приключения Режиссер: Дени Вильнёв В ролях: Тимоти Шаламе, Зендея, Ребекка Фергюсон, Хавьер Бардем, Джош Бролин, Остин Батлер, Флоренс Пью, Дэйв Батиста, Кристофер Уокен, Леа Сейду О фильме: Герцог Пол Атрейдес присоединяется к фременам, чтобы стать Муад Дибом, одновременно пытаясь остановить наступление войны. Страна: США, Канада, ОАЭ, Венгрия, Италия, Новая Зеландия, Иордания, Гамбия Продолжительность: 02:39:28 Перевод(ы): #1: Дублированный | Line (Украинский) #2: Любительский (многоголосый закадровый) | (Украинский) Файл Кодек: x.264 Качество: TS 1080p Видео: AVC, 1920x892 (2.2:1), 23.976 fps, 3 942 kb/s Аудио 1: AC3, 48.0 kHz, 2 ch, 192 kb/s | UKR (DUB) Аудио 2: AC3, 48.0 kHz, 2 ch, 224 kb/s | UKR (MVO) Аудио 3: AC3, 48.0 kHz, 2 ch, 224 kb/s | ENG Субтитры: испанские (forced-hardsub), украинские (forced), английские (forced, full) Сэмпл
[+] MIGeneral Unique ID : 50632405500790767502013632307345701544 (0x26177253CA396520EA97684E5A473AA8) Complete name : Dune Part Two (2024) TS 1080p 2xUkr_Eng .mkv Format : Matroska Format version : Version 4 File size : 5.06 GiB Duration : 2 h 39 min Overall bit rate : 4 547 kb/s Movie name : Dune: Part Two (2024) Encoded date : UTC 2024-03-18 09:27:46 Writing application : mkvmerge v83.0 ('Circle Of Friends') 64-bit Writing library : libebml v1.4.5 + libmatroska v1.7.1 Cover : Yes Attachments : Cover.jpg Video ID : 1 Format : AVC Format/Info : Advanced Video Codec Format profile : High@L4 Format settings : CABAC / 4 Ref Frames Format settings, CABAC : Yes Format settings, Reference frames : 4 frames Codec ID : V_MPEG4/ISO/AVC Duration : 2 h 39 min Bit rate : 3 942 kb/s Width : 1 920 pixels Height : 892 pixels Display aspect ratio : 2.2:1 Frame rate mode : Constant Frame rate : 23.976 (24000/1001) FPS Color space : YUV Chroma subsampling : 4:2:0 Bit depth : 8 bits Scan type : Progressive Bits/(Pixel*Frame) : 0.096 Stream size : 4.35 GiB (86%) Writing library : x264 core 155 r2917M 0a84d98 Encoding settings : cabac=1 / ref=3 / deblock=1:0:0 / analyse=0x3:0x113 / me=hex / subme=7 / psy=1 / psy_rd=1.00:0.00 / mixed_ref=1 / me_range=16 / chroma_me=1 / trellis=1 / 8x8dct=1 / cqm=0 / deadzone=21,11 / fast_pskip=1 / chroma_qp_offset=-2 / threads=24 / lookahead_threads=4 / sliced_threads=0 / nr=0 / decimate=1 / interlaced=0 / bluray_compat=0 / constrained_intra=0 / bframes=3 / b_pyramid=2 / b_adapt=1 / b_bias=0 / direct=1 / weightb=1 / open_gop=0 / weightp=2 / keyint=24 / keyint_min=2 / scenecut=40 / intra_refresh=0 / rc_lookahead=24 / rc=2pass / mbtree=1 / bitrate=3942 / ratetol=1.0 / qcomp=0.60 / qpmin=0 / qpmax=69 / qpstep=4 / cplxblur=20.0 / qblur=0.5 / vbv_maxrate=3942 / vbv_bufsize=3942 / nal_hrd=none / filler=0 / ip_ratio=1.40 / aq=1:1.00 Default : Yes Forced : No Audio #1 ID : 2 Format : AC-3 Format/Info : Audio Coding 3 Commercial name : Dolby Digital Codec ID : A_AC3 Duration : 2 h 39 min Bit rate mode : Constant Bit rate : 192 kb/s Channel(s) : 2 channels Channel layout : L R Sampling rate : 48.0 kHz Frame rate : 31.250 FPS (1536 SPF) Compression mode : Lossy Delay relative to video : -5 ms Stream size : 219 MiB (4%) Title : DUB (Line) Language : Ukrainian Service kind : Complete Main Default : Yes Forced : No Audio #2 ID : 3 Format : AC-3 Format/Info : Audio Coding 3 Commercial name : Dolby Digital Codec ID : A_AC3 Duration : 2 h 39 min Bit rate mode : Constant Bit rate : 224 kb/s Channel(s) : 2 channels Channel layout : L R Sampling rate : 48.0 kHz Frame rate : 31.250 FPS (1536 SPF) Compression mode : Lossy Delay relative to video : -5 ms Stream size : 255 MiB (5%) Title : MVO Language : Ukrainian Service kind : Complete Main Default : No Forced : No Audio #3 ID : 4 Format : AC-3 Format/Info : Audio Coding 3 Commercial name : Dolby Digital Codec ID : A_AC3 Duration : 2 h 39 min Bit rate mode : Constant Bit rate : 224 kb/s Channel(s) : 2 channels Channel layout : L R Sampling rate : 48.0 kHz Frame rate : 31.250 FPS (1536 SPF) Compression mode : Lossy Delay relative to video : -5 ms Stream size : 255 MiB (5%) Title : Original Language : English Service kind : Complete Main Default : No Forced : No Text #1 ID : 5 Format : UTF-8 Codec ID : S_TEXT/UTF8 Codec ID/Info : UTF-8 Plain Text Duration : 2 h 21 min Bit rate : 8 b/s Count of elements : 210 Stream size : 8.77 KiB (0%) Title : Forced Language : Ukrainian Default : Yes Forced : No Text #2 ID : 6 Format : UTF-8 Codec ID : S_TEXT/UTF8 Codec ID/Info : UTF-8 Plain Text Duration : 2 h 21 min Bit rate : 4 b/s Count of elements : 210 Stream size : 5.08 KiB (0%) Title : Forced Language : English Default : No Forced : No Text #3 ID : 7 Format : UTF-8 Codec ID : S_TEXT/UTF8 Codec ID/Info : UTF-8 Plain Text Duration : 2 h 36 min Bit rate : 28 b/s Count of elements : 1314 Stream size : 33.0 KiB (0%) Title : Full Language : English Default : No Forced : No
[+] Скриншоты
18.03.24 добавлен украинский дубляж, форс. субтитры

Всего файлов в раздаче: 1 
Dune Part Two (2024) TS 1080p 2xUkr_Eng [Hurtom].mkv5.06 GB

Похожие раздачи по запросу - Дюна
Сегодня magnet Дюна: Часть вторая / Дюна: Частина друга / Dune: Part Two (2024) WEB-DLRip-AVC | КПК | D | Line | UKR 710.21 MB ↑ 1 ↓ 0
Вчера magnet Дюна: Часть вторая / Dune: Part Two (2024) WEB-DLRip от ExKinoRay | P 1.41 GB ↑ 2 ↓ 6
2024-04-10 magnet Дюна: Часть вторая / Dune: Part Two (2024) WEB-DLRip 720p от Scarabey | Jaskier 5.15 GB ↑ 1 ↓ 7
2024-04-10 magnet Дюна: Часть вторая / Dune: Part Two (2024) WEB-DL 1080p от New-Team | P | Jaskier 7.11 GB ↑ 3 ↓ 16
2024-04-10 magnet Дюна: Часть вторая / Dune: Part Two (2024) WEB-DL 1080p от Scarabey | Jaskier 6.96 GB ↑ 0 ↓ 33
2024-04-10 magnet Дюна: Часть вторая / Dune: Part Two (2024) WEB-DLRip 1080p от селезень | P 4.62 GB ↑ 0 ↓ 0
2024-04-10 magnet Дюна: Часть вторая / Dune: Part Two (2024) WEB-DLRip от New-Team | P | Jaskier 2.18 GB ↑ 0 ↓ 3

Комментарии


Зарегистрируйтесь чтобы добавить комментарий
Торрент клиент
byTorrent - программа для загрузки торрент-файлов.

Скачать byTorrent.exe (1,5 МБ)

Скачать byTorrent.zip (0,6 МБ)

Поддержи torrent.by
российских рублей
(300 российских рублей это 4$)

Обратная связь rss

End game ©