↑↓torrent.by
Поиск
Логин:  Регистрация
Пароль:

Дитя Осириса: Научная фантастика, выпуск 1 / Science Fiction Volume One: The Osiris Child (2016) BDRip 1080p от DoMiNo & селезень | P

download Скачать торрент-файл   magnet Магнитная ссылка Размер: 5.50 GB Добавлен: 2024-03-18 17:00
Пиры будут получены из сети DHT
Последний сидер был замечен 2024-03-24 19:19
Информация о фильме Название: Дитя Осириса: Научная фантастика, выпуск 1 Оригинальное название: Science Fiction Volume One: The Osiris Child Год выхода: 2016 Жанр: Ужасы, фантастика, фэнтези, боевик, триллер, драма, приключения Режиссер: Шейн Эббесс В ролях: Келлан Латс, Дэниэл МакФерсон, Изабель Лукас, Люк Форд, Рэйчел Гриффитс, Темуэра Моррисон, Брен Фостер, Дуэйн Стивенсон, Тиган Крофт, Грэйс Хуан О фильме: Колонизация космоса людьми идёт полным ходом. На далёкой планете лейтенант Кейн несёт службу, и его дочь никогда не видела Земли. Там же проводятся некие эксперименты, и когда расплодившихся чудовищ становится слишком много, генерал решает уничтожить на планете всё живое, сославшись на несуществующий бунт в местной тюрьме. У гражданина Кейна есть 24 часа, чтобы спасти дочь и постараться выжить самому. Страна: Австралия Студия: Cutting Edge, Eclectik Vision, Envision Casting, Storm Alley Entertainment, Storm Vision Entertainment Продолжительность: 01:39:27 Перевод: Профессиональный (многоголосый, закадровый) | SDI Media Субтитры: Английские (Full) Файл Формат: Matroska Качество: BDRip 1080p Видео: 1920x720 at 24.000 fps, x264@L4.1, ~6887 kbps Аудио 1: AC3, 6 ch, ~384 kbps - | Русский | Аудио 2: AC3, 6 ch, ~640 kbps - | Английский | Формат субтитров: softsub (SRT) ***Рип от: -=DoMiNo=-
[+] M/Ix264 : frame I:1020 Avg QP:12.26 size:155101 x264 : frame P:36498 Avg QP:13.32 size: 65851 x264 : frame B:105678 Avg QP:15.17 size: 24362 General Unique ID : 333121677958563060327942066858677307878 (0xFA9CE6C6C5289C21F868AD36935D09E6) Complete name : D:Science.Fiction.Volume.One.The.Osiris.Child.2016.BDRip.1080p.seleZen.mkv Format : Matroska Format version : Version 4 File size : 5.50 GiB Duration : 1 h 39 min Overall bit rate : 7 913 kb/s Movie name : Science.Fiction.Volume.One.The.Osiris.Child.2016.BDRip.1080p.seleZen Encoded date : UTC 2022-07-10 18:58:51 Writing application : mkvmerge v63.0.0 ('Everything') 64-bit Writing library : libebml v1.4.2 + libmatroska v1.6.4 Cover : Yes Attachments : cover.jpg / small_cover.jpg Video ID : 1 Format : AVC Format/Info : Advanced Video Codec Format profile : High@L4.1 Format settings : CABAC / 5 Ref Frames Format settings, CABAC : Yes Format settings, Reference : 5 frames Codec ID : V_MPEG4/ISO/AVC Duration : 1 h 39 min Bit rate : 6 887 kb/s Width : 1 920 pixels Height : 720 pixels Display aspect ratio : 2.667 Frame rate mode : Constant Frame rate : 24.000 FPS Color space : YUV Chroma subsampling : 4:2:0 Bit depth : 8 bits Scan type : Progressive Bits/(Pixel*Frame) : 0.208 Stream size : 4.78 GiB (87%) Title : -=DoMiNo=- Writing library : x264 core 164 by -=DoMiNo=- Encoding settings : cabac=1 / ref=5 / deblock=1:-2:-2 / analyse=0x3:0x133 / me=umh / subme=11 / psy=1 / psy_rd=1.05:0.05 / mixed_ref=1 / me_range=32 / chroma_me=1 / trellis=2 / 8x8dct=1 / cqm=0 / deadzone=21,11 / fast_pskip=0 / chroma_qp_offset=-3 / threads=22 / lookahead_threads=5 / sliced_threads=0 / nr=0 / decimate=1 / interlaced=0 / bluray_compat=0 / constrained_intra=0 / bframes=10 / b_pyramid=2 / b_adapt=2 / b_bias=0 / direct=1 / weightb=1 / open_gop=0 / weightp=2 / keyint=250 / keyint_min=24 / scenecut=40 / intra_refresh=0 / rc_lookahead=60 / rc=crf / mbtree=0 / crf=16.8 / qcomp=0.60 / qpmin=0 / qpmax=69 / qpstep=4 / vbv_maxrate=50000 / vbv_bufsize=62500 / crf_max=0.0 / nal_hrd=none / filler=0 / ip_ratio=1.35 / pb_ratio=1.25 / aq=3:0.80 Language : English Default : Yes Forced : No Color range : Limited Color primaries : BT.709 Transfer characteristics : BT.709 Matrix coefficients : BT.709 Audio #1 ID : 2 Format : AC-3 Format/Info : Audio Coding 3 Commercial name : Dolby Digital Codec ID : A_AC3 Duration : 1 h 39 min Bit rate mode : Constant Bit rate : 384 kb/s Channel(s) : 6 channels Channel layout : L R C LFE Ls Rs Sampling rate : 48.0 kHz Frame rate : 31.250 FPS (1536 SPF) Compression mode : Lossy Stream size : 273 MiB (5%) Title : MVO_ Language : Russian Service kind : Complete Main Default : Yes Forced : Yes Audio #2 ID : 3 Format : AC-3 Format/Info : Audio Coding 3 Commercial name : Dolby Digital Codec ID : A_AC3 Duration : 1 h 39 min Bit rate mode : Constant Bit rate : 640 kb/s Channel(s) : 6 channels Channel layout : L R C LFE Ls Rs Sampling rate : 48.0 kHz Frame rate : 31.250 FPS (1536 SPF) Compression mode : Lossy Stream size : 455 MiB (8%) Title : Original Language : English Service kind : Complete Main Default : No Forced : No Text ID : 4 Format : UTF-8 Codec ID : S_TEXT/UTF8 Codec ID/Info : UTF-8 Plain Text Duration : 1 h 31 min Bit rate : 55 b/s Count of elements : 1237 Stream size : 37.1 KiB (0%) Language : English Default : No Forced : No Menu 00:00:00.000 : en:Chapter 01 00:11:09.667 : en:Chapter 02 00:21:13.000 : en:Chapter 03 00:29:05.500 : en:Chapter 04 00:39:27.375 : en:Chapter 05 00:48:28.542 : en:Chapter 06 01:02:17.083 : en:Chapter 07 01:11:12.958 : en:Chapter 08 01:20:03.208 : en:Chapter 09 01:28:04.875 : en:Chapter 10 01:33:07.417 : en:Chapter 11
Релиз: Присоединяйся к: Кликай на баннеры.

Всего файлов в раздаче: 1 
Science.Fiction.Volume.One.The.Osiris.Child.2016.BDRip.1080p.seleZen.mkv5.50 GB

Похожие раздачи по запросу - Дитя
2024-04-22 magnet Мятежная Луна, часть 1: Дитя огня / Rebel Moon: Part One - A Child of Fire (2023) WEB-DL-HEVC 2160p | 4K | SDR | D, P, A 20.74 GB ↑ 0 ↓ 2
2024-04-20 magnet Мятежная Луна, часть 1: Дитя огня / Rebel Moon - Part One: A Child of Fire (2023) WEB-DLRip 720p от DoMiNo & селезень | D | Red Head Sound 3.49 GB ↑ 0 ↓ 3
2024-04-12 magnet Дитя тьмы / Huesera (2022) BDRip от MegaPeer | D 1.46 GB ↑ 0 ↓ 0
2024-04-12 magnet Дитя тьмы / Huesera (2022) BDRip 1080p от New-Team | D 8.93 GB ↑ 0 ↓ 0
2024-03-19 magnet Дитя Осириса: Научная фантастика, выпуск 1 / Science Fiction Volume One: The Osiris Child (2016) BDRip от toxics & селезень | D 1.46 GB ↑ 0 ↓ 0
2024-03-18 magnet Дитя Осириса: Научная фантастика, выпуск 1 / Science Fiction Volume One: The Osiris Child (2016) BDRip-AVC от DoMiNo & селезень | P 1К2.00 GB ↑ 0 ↓ 0
2024-02-03 magnet Дитя раздора [S01] (2023) WEB-DLRip от Generalfilm | КПК 1.44 GB ↑ 0 ↓ 0

Комментарии


Зарегистрируйтесь чтобы добавить комментарий
Торрент клиент
byTorrent - программа для загрузки торрент-файлов.

Скачать byTorrent.exe (1,5 МБ)

Скачать byTorrent.zip (0,6 МБ)

Поддержи torrent.by
российских рублей
(300 российских рублей это 4$)

Обратная связь rss

End game ©