↑↓torrent.by
Поиск
Логин:  Регистрация
Пароль:

Должное правосудие / Due Justice (2023) WEB-DL 1080p | D

download Скачать торрент-файл   magnet Магнитная ссылка Размер: 4.98 GB Раздают: 1 Качают: 0 Добавлен: il68k 2024-03-19 01:18
Пиры будут получены из сети DHT
Последний сидер был замечен сегодня в 17:14
Должное правосудие / Due Justice (2023)
Производство: США / Al Bravo Films, BondIt, Premiere Entertainment Group Жанр: боевик, триллер, драма, криминал Режиссер: Хавьер Рейна Актеры: Келлан Латс, Джефф Фэйи, Эфрен Рамирес, Челси Лопес, Альфред Кастильо, Ману Интирэйми, Кристиан Дэй, Синтия Гири, Дэррил Лемон Описание: Любимая жена и родной брат адвоката Макса убиты, а маленькая дочь исчезла. Полицейские разводят руками, не имея никаких зацепок, лишь предполагая, что это ужасное преступление — дело рук организованной банды, торгующей детскими органами. Понимая, что жизнь дочери может оборваться в любую минуту, Макс, бывший спецназовец, приступает к собственной миссии по выслеживанию преступников. Детектив Сантьяго, назначенный на это дело, пытается остановить охваченного горем мужчину, понимая, что тот готов на все в своей жажде мести. Продолжительность: 01:37:22 Качество видео: WEB-DL 1080p Перевод: Дублированный Язык озвучки: Русский, Английский Субтитры: Английские Видео: AVC/H.264, 1920x800, ~6300 Kbps Аудио 1: E-AC3, 6 ch, 384 Kbps - русский Аудио 2: E-AC3, 6 ch, 640 Kbps - английский
[+] MediaInfo
Общее
Уникальный идентификатор                 : 231497572986480303615603874041748191326 (0xAE28CF8FB8A802821B9D006BE416F85E)
Полное имя                               : Dolzhnoe.pravosudie.2023.WEB-DL.1080p.Dub.Sub.Eng.mkv
Формат                                   : Matroska
Версия формата                           : Version 4
Размер файла                             : 4,98 Гбайт
Продолжительность                        : 1 ч. 37 м.
Общий поток                              : 7 325 Кбит/сек
Частота кадров                           : 23,976 кадра/сек
Дата кодирования                         : 2024-03-17 20:26:35 UTC
Программа кодирования                    : mkvmerge v83.0 ('Circle Of Friends') 64-bit
Библиотека кодирования                   : libebml v1.4.5 + libmatroska v1.7.1
Видео
Идентификатор                            : 1
Формат                                   : AVC
Формат/Информация                        : Advanced Video Codec
Профиль формата                          : High@L4
Настройки формата                        : CABAC / 4 Ref Frames
Параметр CABAC формата                   : Да
Параметр RefFrames формата               : 4 кадра
Идентификатор кодека                     : V_MPEG4/ISO/AVC
Продолжительность                        : 1 ч. 37 м.
Вид битрейта                             : Постоянный
Битрейт                                  : 6 300 Кбит/сек
Номинальный битрейт                      : 10 000 Кбит/сек
Ширина                                   : 1 920 пикселей
Высота                                   : 800 пикселей
Соотношение сторон                       : 2,40:1
Режим частоты кадров                     : Постоянный
Частота кадров                           : 23,976 (24000/1001) кадра/сек
Цветовое пространство                    : YUV
Субдискретизация насыщенности            : 4:2:0
Битовая глубина                          : 8 бит
Тип развёртки                            : Прогрессивная
Бит/(Пиксели*Кадры)                      : 0.171
Размер потока                            : 4,28 Гбайт (86%)
Язык                                     : English
Default                                  : Да
Forced                                   : Нет
Цветовой диапазон                        : Limited
Основные цвета                           : BT.709
Характеристики трансфера                 : BT.709
Коэффициенты матрицы                     : BT.709
Аудио #1
Идентификатор                            : 2
Формат                                   : E-AC-3
Формат/Информация                        : Enhanced AC-3
Коммерческое название                    : Dolby Digital Plus
Идентификатор кодека                     : A_EAC3
Продолжительность                        : 1 ч. 37 м.
Вид битрейта                             : Постоянный
Битрейт                                  : 384 Кбит/сек
Каналы                                   : 6 каналов
Channel layout                           : L R C LFE Ls Rs
Частота                                  : 48,0 КГц
Частота кадров                           : 31,250 кадров/сек (1536 SPF)
Метод сжатия                             : С потерями
Размер потока                            : 267 Мбайт (5%)
Заголовок                                : Dub
Язык                                     : Russian
Service kind                             : Complete Main
Default                                  : Да
Forced                                   : Нет
Аудио #2
Идентификатор                            : 3
Формат                                   : E-AC-3
Формат/Информация                        : Enhanced AC-3
Коммерческое название                    : Dolby Digital Plus
Идентификатор кодека                     : A_EAC3
Продолжительность                        : 1 ч. 37 м.
Вид битрейта                             : Постоянный
Битрейт                                  : 640 Кбит/сек
Каналы                                   : 6 каналов
Channel layout                           : L R C LFE Ls Rs
Частота                                  : 48,0 КГц
Частота кадров                           : 31,250 кадров/сек (1536 SPF)
Метод сжатия                             : С потерями
Размер потока                            : 446 Мбайт (9%)
Заголовок                                : Original
Язык                                     : English
Service kind                             : Complete Main
Default                                  : Нет
Forced                                   : Нет
Текст
Идентификатор                            : 4
Формат                                   : UTF-8
Идентификатор кодека                     : S_TEXT/UTF8
Идентификатор кодека/Информация          : UTF-8 Plain Text
Продолжительность                        : 1 ч. 36 м.
Битрейт                                  : 59 бит/сек
Частота кадров                           : 0,278 кадр/сек
Count of elements                        : 1616
Размер потока                            : 42,3 Кбайт (0%)
Заголовок                                : SDH
Язык                                     : English
Default                                  : Нет
Forced                                   : Нет
[+] Скриншоты

Всего файлов в раздаче: 1 
Dolzhnoe.pravosudie.2023.WEB-DL.1080p.Dub.Sub.Eng.mkv4.98 GB

Похожие раздачи по запросу - Должное
2024-04-04 magnet Должное правосудие / Надлежащее правосудие / Due Justice (2023) BDRip от toxics & селезень | D 1.46 GB ↑ 0 ↓ 0
2024-04-01 magnet Должное правосудие / Надлежащее правосудие / Due Justice (2023) BDRip 720p от DoMiNo & селезень | D 3.93 GB ↑ 0 ↓ 1
2024-03-31 magnet Должное правосудие / Надлежащее правосудие / Due Justice (2023) BDRip-AVC от DoMiNo & селезень | D 1.35 GB ↑ 0 ↓ 1
2024-03-31 magnet Должное правосудие / Due Justice (2023) BDRip 720p от MegaPeer | D 3.46 GB ↑ 0 ↓ 0
2024-03-31 magnet Должное правосудие / Due Justice (2023) BDRip 1080p от MegaPeer | D 7.84 GB ↑ 0 ↓ 0
2024-03-31 magnet Должное правосудие / Due Justice (2023) BDRip от MegaPeer | D 1К1.46 GB ↑ 0 ↓ 0
2024-03-18 magnet Должное правосудие / Надлежащее правосудие / Due Justice (2023) WEB-DLRip-AVC от DoMiNo & селезень | D 1.24 GB ↑ 0 ↓ 0

Комментарии


Зарегистрируйтесь чтобы добавить комментарий
Торрент клиент
byTorrent - программа для загрузки торрент-файлов.

Скачать byTorrent.exe (1,5 МБ)

Скачать byTorrent.zip (0,6 МБ)

Поддержи torrent.by
российских рублей
(300 российских рублей это 4$)

Обратная связь rss

End game ©