↑↓torrent.by
Поиск
Логин:  Регистрация
Пароль:

Найти и уничтожить / Dark Asset (2023) BDRemux 1080p от ELEKTRI4KA | D

download Скачать торрент-файл   magnet Магнитная ссылка Размер: 17.96 GB Добавлен: 2024-03-19 05:00
Пиры будут получены из сети DHT
Последний сидер был замечен 2024-03-26 21:04
«Солдат Джо Доу пытается отомстить безумному ученому, который сделал его жизнь невыносимой своими экспериментами» Информация о фильме Название: Найти и уничтожить Оригинальное название: Dark Asset Год выхода: 2023 Жанр: боевик, триллер Режиссер: Майкл Уинник В ролях: Байрон Манн, Роберт Патрик, Хелена Мэттссон, Шэйни Ригсби, Сабина Гадеки, Чыонг Нгок Ань, Эрика Муноз, Марк Уинник, Пол Сэвадж, Дарленис Дюран, Алан Тафоя, Мо Анути, Росс Кэмпбелл, Джарод Хенг, Ник Хермц О фильме: Солдат Джо Доу становится объектом сверхсекретной экспериментальной военной программы: его тело буквально напичкано различными микрочипами. Однако в какой-то момент суперсолдату, в которого превратился Доу, удается вырваться из цепких рук опасного и жестокого военного ученого. Шаг за шагом прорываясь к ответу, постоянно находясь под прицелом, Джо предстоит узнать правду о целях бесчеловечной программы преступного ученого, которую он решает остановить любой ценой. Выпущено: США / Lankis Entertainment, Transnational Arts Entertainment, Cherokee Music Group Продолжительность: 01:30:14 Озвучивание: Дублированное | Официальное Файл Формат: MKV Качество: BDRemux 1080p Видео: MPEG-4 AVC, 25.8 Mb/s, 1920x1080 Аудио: Russian: AC3, 384 Kb/s (6 ch) / E-AC3, 384 Kb/s (6 ch), English: DTS-HD MA, 1955 Kb/s (6 ch) Субтитры: Нет Допролнительно: Сохранены оригинальные чаптеры. Релиз группы: &  | Мы в Telegram:
[+] Инфо-файл:Complete name: Nayti.i.unichtozhit.2023.BDREMUX.1080p.ELEKTRI4KA.UNIONGANG.mkv Format: Matroska Format version: Version 4 File size: 18.0 GiB Duration: 1 h 30 min Overall bit rate mode: Variable Overall bit rate: 28.5 Mb/s Movie name: Nayti.i.unichtozhit.2023.BDREMUX.1080p.ELEKTRI4KA.UNIONGANG. Encoded date: UTC 2024-03-18 16:15:52 Writing application: mkvmerge v8.3.0 ('Over the Horizon') 64bit Writing library: libebml v1.3.1 + libmatroska v1.4.2 Video ID: 1 Format: AVC Format/Info: Advanced Video Codec Format profile: High@L4.1 Format settings: CABAC / 3 Ref Frames Format settings, CABAC: Yes Format settings, Reference frames: 3 frames Codec ID: V_MPEG4/ISO/AVC Duration: 1 h 30 min Bit rate mode: Variable Bit rate: 25.8 Mb/s Maximum bit rate: 27.0 Mb/s Width: 1 920 pixels Height: 1 080 pixels Display aspect ratio: 16:9 Frame rate mode: Constant Frame rate: 23.976 (24000/1001) FPS Standard: NTSC Color space: YUV Chroma subsampling: 4:2:0 Bit depth: 8 bits Scan type: Progressive Bits/(Pixel*Frame): 0.518 Stream size: 16.2 GiB (90%) Writing library: x264pro - Adobe CS Exporter Plug-in Encoding settings: cabac=1 / ref=4 / deblock=1:-2:-2 / analyse=0x3:0x113 / me=umh / subme=9 / psy=1 / psy_rd=1.00:0.25 / mixed_ref=1 / me_range=16 / chroma_me=1 / trellis=1 / 8x8dct=1 / cqm=0 / deadzone=6, 6 / fast_pskip=1 / chroma_qp_offset=-4 / threads=16 / lookahead_threads=2 / sliced_threads=0 / slices=4 / nr=0 / decimate=0 / interlaced=0 / bluray_compat=1 / constrained_intra=0 / bframes=3 / b_pyramid=1 / b_adapt=2 / b_bias=0 / direct=3 / weightb=1 / open_gop=0 / weightp=1 / keyint=24 / keyint_min=1 / scenecut=40 / intra_refresh=0 / rc_lookahead=26 / rc=crf / mbtree=1 / crf=1.0 / qcomp=0.80 / qpmin=0 / qpmax=69 / qpstep=4 / vbv_maxrate=27000 / vbv_bufsize=30000 / crf_max=0.0 / nal_hrd=vbr / ip_ratio=1.10 / aq=1:0.50 Default: Yes Forced: No Color range: Limited Color primaries: BT.709 Transfer characteristics: BT.709 Matrix coefficients: BT.709 Audio #1 ID: 2 Format: AC-3 Format/Info: Audio Coding 3 Commercial name: Dolby Digital Codec ID: A_AC3 Duration: 1 h 30 min Bit rate mode: Constant Bit rate: 384 kb/s Channel(s): 6 channels Channel layout: L R C LFE Ls Rs Sampling rate: 48.0 kHz Frame rate: 31.250 FPS (1536 SPF) Compression mode: Lossy Stream size: 248 MiB (1%) Title: DUB AC3 Language: Russian Service kind: Complete Main Default: Yes Forced: Yes Audio #2 ID: 3 Format: E-AC-3 Format/Info: Enhanced AC-3 Commercial name: Dolby Digital Plus Codec ID: A_EAC3 Duration: 1 h 30 min Bit rate mode: Constant Bit rate: 384 kb/s Channel(s): 6 channels Channel layout: L R C LFE Ls Rs Sampling rate: 48.0 kHz Frame rate: 31.250 FPS (1536 SPF) Compression mode: Lossy Stream size: 248 MiB (1%) Title: DUB EAC3 Language: Russian Service kind: Complete Main Default: No Forced: No Audio #3 ID: 4 Format: DTS XLL Format/Info: Digital Theater Systems Commercial name: DTS-HD Master Audio Codec ID: A_DTS Duration: 1 h 30 min Bit rate mode: Variable Bit rate: 1 955 kb/s Channel(s): 6 channels Channel layout: C L R Ls Rs LFE Sampling rate: 48.0 kHz Frame rate: 93.750 FPS (512 SPF) Bit depth: 16 bits Compression mode: Lossless Stream size: 1.23 GiB (7%) Title: Original Language: English Default: No Forced: No Menu 00:00:00.000: :Chapter 01 00:09:07.880: :Chapter 02 00:13:18.464: :Chapter 03 00:18:12.508: :Chapter 04 00:25:15.639: :Chapter 05 00:30:27.408: :Chapter 06 00:36:24.390: :Chapter 07 00:40:56.829: :Chapter 08 00:47:53.120: :Chapter 09 00:53:28.413: :Chapter 10 01:01:58.089: :Chapter 11 01:06:54.552: :Chapter 12 01:11:39.336: :Chapter 13 01:15:39.576: :Chapter 14 01:22:59.265: :Chapter 15 01:26:02.365: :Chapter 16
[+] Скриншоты

Всего файлов в раздаче: 1 
Nayti.i.unichtozhit.2023.BDREMUX.1080p.ELEKTRI4KA.UNIONGANG.mkv17.96 GB

Похожие раздачи по запросу - Найти
2024-03-20 magnet Найти и уничтожить / Dark Asset (2023) HDRip от ExKinoRay | D 745.74 MB ↑ 0 ↓ 0
2024-03-19 magnet Найти и уничтожить / Dark Asset (2023) BDRip от toxics & селезень | D 1К1.46 GB ↑ 0 ↓ 0
2024-03-19 magnet Найти и уничтожить / Dark Asset (2023) BDRip от ELEKTRI4KA | D 1.46 GB ↑ 0 ↓ 0
2024-03-19 magnet Найти и уничтожить / Dark Asset (2023) BDRip-AVC от DoMiNo & селезень | D 1.84 GB ↑ 0 ↓ 0
2024-03-19 magnet Найти и уничтожить / Dark Asset (2023) BDRip 1080p от ELEKTRI4KA | D 8.40 GB ↑ 0 ↓ 0
2024-03-19 magnet Найти и уничтожить / Dark Asset (2023) BDRip 720p от ELEKTRI4KA | D 4.61 GB ↑ 0 ↓ 0
2023-08-17 magnet Найти Лайлу / Back to Lyla (2022) WEB-DL 1080p | Jaskier 4.77 GB ↑ 0 ↓ 0

Комментарии


Зарегистрируйтесь чтобы добавить комментарий
Торрент клиент
byTorrent - программа для загрузки торрент-файлов.

Скачать byTorrent.exe (1,5 МБ)

Скачать byTorrent.zip (0,6 МБ)

Поддержи torrent.by
российских рублей
(300 российских рублей это 4$)

Обратная связь rss

End game ©