↑↓torrent.by
Поиск
Логин:  Регистрация
Пароль:

Миллион в брачной корзине (1985) HDTVRip 720p от KORSAR

download Скачать торрент-файл   magnet Магнитная ссылка Размер: 2.48 GB Добавлен: 2024-03-19 05:00
Пиры будут получены из сети DHT
Последний сидер был замечен 2024-04-15 17:03
Информация о фильме Название: Миллион в брачной корзине Год выхода: 1985 Жанр: Комедия Режиссер: Всеволод Шиловский В ролях: Александр Ширвиндт, Софико Чиаурели, Галина Соколова, Игорь Богодух, Лариса Удовиченко, Ольга Кабо, Алексей Яковлев, Анатолий Хостикоев, Елена Аминова, Семён Фарада, Валентин Никулин, Николай Гринько, Леонид Оболенский, Александр Пермяков, Франческа Переплетчикова О фильме: В густонаселенных трущобах живет большая, но бедная семья обаятельного и талантливого синьора Леонидо Попогатто. Его жена, синьора Валерия, его дочь Фьерелла и его старшая сестра Матильда, которые битком набиты в небольшой и обшарпанной квартирке на последнем этаже. Семья перебивается мелкими аферами, автор которых сам синьор Попагатто, является режиссером актером в одном лице. Он под видом некого важного лица, проникает на светские приемы и стягивает со стола напитки и угощения. Но в одно прекрасное утро его осенила гениальная идея, как раз и навсегда стать богатыми, и выдать дочь замуж за приличного человека! Страна: СССР Студия: Одесская киностудия Продолжительность: 01:28:53 Перевод: Не требуется Файл Кодек: х264 Качество: HDTVRip 720p Видео: MPEG-4 AVC, 996x720, 25.000 fps, 3800 Кбит/с Аудио: Русский: AC3, 48.0 КГц, 2 ch, 16 бит, 192 Кбит/с Субтитры: Нет Релиз от:
[+] Скриншоты
[+] MediaInfox264 : frame I:734 Avg QP:17.63 size: 98156 x264 : frame P:30932 Avg QP:19.40 size: 45013 x264 : frame B:101668 Avg QP:20.81 size: 10515 ======================================== Общее Уникальный идентификатор : 170319954800846111252615981947732418554 (0x80226E1B8AD7DF7DAE133E9D3A74DFFA) Полное имя : Миллион в брачной корзине (1985).mkv Формат : Matroska Версия формата : Version 2 Размер файла : 2,48 Гбайт Продолжительность : 1 ч. 28 м. Общий поток : 3994 Кбит/сек Дата кодирования : UTC 2017-07-29 08:35:50 Программа кодирования : mkvmerge v7.8.0 ('River Man') 32bit built on Apr 3 2015 12:11:22 Библиотека кодирования : libebml v1.3.1 + libmatroska v1.4.2 Видео Идентификатор : 1 Формат : AVC Формат/Информация : Advanced Video Codec Профиль формата : High@L4.1 Параметр CABAC формата : Да Параметр ReFrames формата : 11 кадров Идентификатор кодека : V_MPEG4/ISO/AVC Продолжительность : 1 ч. 28 м. Битрейт : 3800 Кбит/сек Ширина : 996 пикселей Высота : 720 пикселей Соотношение сторон : 1,383 Режим частоты кадров : Постоянный Частота кадров : 25,000 кадров/сек Цветовое пространство : YUV Субдискретизация насыщенности : 4:2:0 Битовая глубина : 8 бит Тип развёртки : Прогрессивная Бит/(Пиксели*Кадры) : 0.212 Размер потока : 2,31 Гбайт (93%) Библиотека кодирования : x264 core 148 r2744kMod b97ae06 Настройки программы : cabac=1 / ref=11 / deblock=1:-2:-2 / analyse=0x3:0x133 / me=umh / subme=10 / psy=1 / fade_compensate=0.00 / psy_rd=1.05:0.10 / mixed_ref=1 / me_range=32 / chroma_me=1 / trellis=2 / 8x8dct=1 / cqm=0 / deadzone=21,11 / fast_pskip=0 / chroma_qp_offset=-3 / threads=6 / lookahead_threads=1 / sliced_threads=0 / nr=0 / decimate=0 / interlaced=0 / bluray_compat=0 / constrained_intra=0 / bframes=10 / b_pyramid=2 / b_adapt=2 / b_bias=0 / direct=3 / weightb=1 / open_gop=0 / weightp=2 / keyint=250 / keyint_min=25 / scenecut=40 / intra_refresh=0 / rc=2pass / mbtree=0 / bitrate=3800 / ratetol=1.0 / qcomp=0.63 / qpmin=0 / qpmax=39 / qpstep=4 / cplxblur=20.0 / qblur=0.5 / ip_ratio=1.15 / pb_ratio=1.30 / aq=2:1.00 Язык : Russian Default : Да Forced : Нет Цветовой диапазон : Limited Основные цвета : BT.709 Характеристики трансфера : BT.709 Коэффициенты матрицы : BT.709 Аудио Идентификатор : 2 Формат : AC-3 Формат/Информация : Audio Coding 3 Параметр Endianness формата : Big Идентификатор кодека : A_AC3 Продолжительность : 1 ч. 28 м. Вид битрейта : Постоянный Битрейт : 192 Кбит/сек Каналы : 2 канала Расположение каналов : Front: L R Частота : 48,0 КГц Частота кадров : 31,250 кадров/сек (1536 spf) Битовая глубина : 16 бит Метод сжатия : С потерями Размер потока : 122 Мбайт (5%) Язык : Russian Default : Да Forced : Нет

Всего файлов в раздаче: 1 
Миллион в брачной корзине (1985).mkv2.48 GB

Комментарии

mif1313
классный фильм! старикан зачётный!


Зарегистрируйтесь чтобы добавить комментарий
Торрент клиент
byTorrent - программа для загрузки торрент-файлов.

Скачать byTorrent.exe (1,5 МБ)

Скачать byTorrent.zip (0,6 МБ)

Поддержи torrent.by
российских рублей
(300 российских рублей это 4$)

Обратная связь rss

End game ©