↑↓torrent.by
Поиск
Логин:  Регистрация
Пароль:

Найти и уничтожить / Dark Asset (2023) BDRip-AVC от DoMiNo & селезень | D

download Скачать торрент-файл   magnet Магнитная ссылка Размер: 1.84 GB Добавлен: 2024-03-19 05:00
Пиры будут получены из сети DHT
Последний сидер был замечен сегодня в 00:42
Информация о фильме Название: Найти и уничтожить Оригинальное название: Dark Asset Год выхода: 2023 Жанр: боевик, триллер Режиссер: Майкл Уинник В ролях: Байрон Манн, Роберт Патрик, Хелена Мэттссон, Шэйни Ригсби, Сабина Гадеки, Чыонг Нгок Ань, Эрика Муноз, Марк Уинник, Пол Сэвадж, Дарленис Дюран, Алан Тафоя, Мо Анути, Росс Кэмпбелл, Джарод Хенг, Ник Хермц О фильме: Солдат Джо Доу становится объектом сверхсекретной экспериментальной военной программы: его тело буквально напичкано различными микрочипами. Однако в какой-то момент суперсолдату, в которого превратился Доу, удается вырваться из цепких рук опасного и жестокого военного ученого. Шаг за шагом прорываясь к ответу, постоянно находясь под прицелом, Джо предстоит узнать правду о целях бесчеловечной программы преступного ученого, которую он решает остановить любой ценой. Выпущено: США / Lankis Entertainment, Transnational Arts Entertainment, Cherokee Music Group Продолжительность: 01:30:14 Перевод: Дублированный | Официальный Субтитры: Английские (Full, SDH) Файл Формат: Matroska Качество: BDRip-AVC Видео: 1024x426 at 23.976 fps, x264@L4.1, ~2530 kbps Аудио: AC3, 6 ch, ~384 kbps - | Русский | Формат субтитров: softsub (SRT) ***Рип от: -=DoMiNo=-
[+] M/IGeneral Unique ID : 294153003286486985750834146062639959475 (0xDD4BCEC7230D1152A6378A5A3D0A0DB3) Complete name : R:Dark.Asset.2023.DUB.BDRip.x264.seleZen.mkv Format : Matroska Format version : Version 4 File size : 1.84 GiB Duration : 1 h 30 min Overall bit rate : 2 916 kb/s Frame rate : 23.976 FPS Movie name : Dark.Asset.2023.DUB.BDRip.x264.seleZen Encoded date : 2024-03-18 19:18:36 UTC Writing application : mkvmerge v83.0 ('Circle Of Friends') 64-bit Writing library : libebml v1.4.5 + libmatroska v1.7.1 Cover : Yes Attachments : cover.jpg / small_cover.jpg Video ID : 1 Format : AVC Format/Info : Advanced Video Codec Format profile : High@L4.1 Format settings : CABAC / 14 Ref Frames Format settings, CABAC : Yes Format settings, Reference : 14 frames Codec ID : V_MPEG4/ISO/AVC Duration : 1 h 30 min Bit rate : 2 530 kb/s Width : 1 024 pixels Height : 426 pixels Display aspect ratio : 2.40:1 Frame rate mode : Constant Frame rate : 23.976 (24000/1001) FPS Color space : YUV Chroma subsampling : 4:2:0 Bit depth : 8 bits Scan type : Progressive Bits/(Pixel*Frame) : 0.242 Stream size : 1.59 GiB (87%) Title : -=DoMiNo=- Writing library : x264 core 164 r3186 585e019 Encoding settings : cabac=1 / ref=14 / deblock=1:-2:-2 / analyse=0x3:0x133 / me=umh / subme=10 / psy=1 / psy_rd=1.03:0.05 / mixed_ref=1 / me_range=32 / chroma_me=1 / trellis=2 / 8x8dct=1 / cqm=0 / deadzone=21,11 / fast_pskip=0 / chroma_qp_offset=-3 / threads=13 / lookahead_threads=3 / sliced_threads=0 / nr=0 / decimate=0 / interlaced=0 / bluray_compat=0 / constrained_intra=0 / bframes=10 / b_pyramid=2 / b_adapt=2 / b_bias=0 / direct=3 / weightb=1 / open_gop=0 / weightp=2 / keyint=240 / keyint_min=23 / scenecut=40 / intra_refresh=0 / rc_lookahead=60 / rc=crf / mbtree=0 / crf=18.0 / qcomp=0.60 / qpmin=0 / qpmax=69 / qpstep=4 / vbv_maxrate=50000 / vbv_bufsize=62500 / crf_max=0.0 / nal_hrd=none / filler=0 / ip_ratio=1.40 / pb_ratio=1.30 / aq=3:0.90 Language : English Default : Yes Forced : No Color range : Limited Color primaries : BT.709 Transfer characteristics : BT.709 Matrix coefficients : BT.709 Audio ID : 2 Format : AC-3 Format/Info : Audio Coding 3 Commercial name : Dolby Digital Codec ID : A_AC3 Duration : 1 h 30 min Bit rate mode : Constant Bit rate : 384 kb/s Channel(s) : 6 channels Channel layout : L R C LFE Ls Rs Sampling rate : 48.0 kHz Frame rate : 31.250 FPS (1536 SPF) Compression mode : Lossy Stream size : 248 MiB (13%) Title : Dub Language : Russian Service kind : Complete Main Default : Yes Forced : No Text #1 ID : 3 Format : UTF-8 Codec ID : S_TEXT/UTF8 Codec ID/Info : UTF-8 Plain Text Duration : 1 h 25 min Bit rate : 36 b/s Frame rate : 0.144 FPS Count of elements : 735 Stream size : 22.8 KiB (0%) Title : Full Language : English Default : No Forced : No Text #2 ID : 4 Format : UTF-8 Codec ID : S_TEXT/UTF8 Codec ID/Info : UTF-8 Plain Text Duration : 1 h 28 min Bit rate : 43 b/s Frame rate : 0.181 FPS Count of elements : 959 Stream size : 28.2 KiB (0%) Title : SDH Language : English Default : No Forced : No Menu 00:00:00.000 : en:Chapter 01 00:09:07.880 : en:Chapter 02 00:13:18.464 : en:Chapter 03 00:18:12.508 : en:Chapter 04 00:25:15.639 : en:Chapter 05 00:30:27.408 : en:Chapter 06 00:36:24.390 : en:Chapter 07 00:40:56.829 : en:Chapter 08 00:47:53.120 : en:Chapter 09 00:53:28.413 : en:Chapter 10 01:01:58.089 : en:Chapter 11 01:06:54.552 : en:Chapter 12 01:11:39.336 : en:Chapter 13 01:15:39.576 : en:Chapter 14 01:22:59.265 : en:Chapter 15 01:26:02.365 : en:Chapter 16
Релиз: Присоединяйся к: Кликай на баннеры.

Всего файлов в раздаче: 1 
Dark.Asset.2023.DUB.BDRip.x264.seleZen.mkv1.84 GB

Похожие раздачи по запросу - Найти
2024-03-20 magnet Найти и уничтожить / Dark Asset (2023) HDRip от ExKinoRay | D 745.74 MB ↑ 0 ↓ 0
2024-03-19 magnet Найти и уничтожить / Dark Asset (2023) BDRip от toxics & селезень | D 1К1.46 GB ↑ 0 ↓ 0
2024-03-19 magnet Найти и уничтожить / Dark Asset (2023) BDRip от ELEKTRI4KA | D 1.46 GB ↑ 0 ↓ 0
2024-03-19 magnet Найти и уничтожить / Dark Asset (2023) BDRip 1080p от ELEKTRI4KA | D 8.40 GB ↑ 0 ↓ 0
2024-03-19 magnet Найти и уничтожить / Dark Asset (2023) BDRip 720p от ELEKTRI4KA | D 4.61 GB ↑ 0 ↓ 0
2024-03-19 magnet Найти и уничтожить / Dark Asset (2023) BDRemux 1080p от ELEKTRI4KA | D 17.96 GB ↑ 0 ↓ 0
2023-08-17 magnet Найти Лайлу / Back to Lyla (2022) WEB-DL 1080p | Jaskier 4.77 GB ↑ 0 ↓ 0

Комментарии


Зарегистрируйтесь чтобы добавить комментарий
Торрент клиент
byTorrent - программа для загрузки торрент-файлов.

Скачать byTorrent.exe (1,5 МБ)

Скачать byTorrent.zip (0,6 МБ)

Поддержи torrent.by
российских рублей
(300 российских рублей это 4$)

Обратная связь rss

End game ©